<?xml version="1.0" standalone="no"?>
<!DOCTYPE svg PUBLIC "-//W3C//DTD SVG 1.1//EN" "http://www.w3.org/Graphics/SVG/1.1/DTD/svg11.dtd" >
<svg xmlns="http://www.w3.org/2000/svg">
<metadata></metadata>
<defs>
<font id="clear_sans_lightregular" horiz-adv-x="541" >
<font-face units-per-em="2048" ascent="1489" descent="-559" />
<missing-glyph horiz-adv-x="539" />
<glyph unicode="&#xfb01;" horiz-adv-x="1110" d="M47 938v111h164v116q0 91 15 158t49.5 111t90 65t136.5 21q60 0 114.5 -14.5t90.5 -32.5l-43 -109q-14 8 -33.5 16t-41 14t-44 9.5t-43.5 3.5q-46 0 -77 -13t-50 -42t-27 -76t-8 -115v-112h244v-111h-244v-938h-129v938h-164zM772 1305q0 45 20 65.5t70 20.5 q51 0 71.5 -20t20.5 -66q0 -51 -21.5 -69.5t-70.5 -18.5q-51 0 -70.5 23t-19.5 65zM798 0v1049h129v-1049h-129z" />
<glyph unicode="&#xfb02;" horiz-adv-x="1135" d="M47 938v111h164v116q0 91 15 158t49.5 111t90 65t136.5 21q60 0 114.5 -14.5t90.5 -32.5l-43 -109q-14 8 -33.5 16t-41 14t-44 9.5t-43.5 3.5q-46 0 -77 -13t-50 -42t-27 -76t-8 -115v-112h244v-111h-244v-938h-129v938h-164zM811 0v1489h129v-1489h-129z" />
<glyph unicode="&#xfb03;" horiz-adv-x="1729" d="M47 938v111h164v116q0 91 15 158t49.5 111t90 65t136.5 21q60 0 114.5 -14.5t90.5 -32.5l-43 -109q-14 8 -33.5 16t-41 14t-44 9.5t-43.5 3.5q-46 0 -77 -13t-50 -42t-27 -76t-8 -115v-112h244v-111h-244v-938h-129v938h-164zM665 938v111h164v116q0 91 15 158t49.5 111 t90 65t136.5 21q60 0 114.5 -14.5t90.5 -32.5l-43 -109q-14 8 -33.5 16t-41 14t-44 9.5t-43.5 3.5q-46 0 -77 -13t-50 -42t-27 -76t-8 -115v-112h244v-111h-244v-938h-129v938h-164zM1391 1305q0 45 20 65.5t70 20.5q51 0 71.5 -20t20.5 -66q0 -51 -21.5 -69.5t-70.5 -18.5 q-51 0 -70.5 23t-19.5 65zM1417 0v1049h129v-1049h-129z" />
<glyph unicode="&#xfb04;" horiz-adv-x="1753" d="M47 938v111h164v116q0 91 15 158t49.5 111t90 65t136.5 21q60 0 114.5 -14.5t90.5 -32.5l-43 -109q-14 8 -33.5 16t-41 14t-44 9.5t-43.5 3.5q-46 0 -77 -13t-50 -42t-27 -76t-8 -115v-112h244v-111h-244v-938h-129v938h-164zM665 938v111h164v116q0 91 15 158t49.5 111 t90 65t136.5 21q60 0 114.5 -14.5t90.5 -32.5l-43 -109q-14 8 -33.5 16t-41 14t-44 9.5t-43.5 3.5q-46 0 -77 -13t-50 -42t-27 -76t-8 -115v-112h244v-111h-244v-938h-129v938h-164zM1430 0v1489h129v-1489h-129z" />
<glyph horiz-adv-x="0" />
<glyph unicode="&#xd;" horiz-adv-x="539" />
<glyph horiz-adv-x="0" />
<glyph horiz-adv-x="0" />
<glyph unicode=" "  horiz-adv-x="539" />
<glyph unicode="&#x09;" horiz-adv-x="539" />
<glyph unicode="&#xa0;" horiz-adv-x="539" />
<glyph unicode="!" d="M168 78q0 49 23 70.5t77 21.5q57 0 80 -22t23 -70q0 -53 -25 -72.5t-78 -19.5q-29 0 -48.5 6t-31 18t-16 29t-4.5 39zM195 1384h149l-18 -1005h-107z" />
<glyph unicode="&#x22;" horiz-adv-x="892" d="M197 1452h166l-37 -520h-94zM529 1452h166l-37 -520h-94z" />
<glyph unicode="#" horiz-adv-x="1466" d="M119 397v95h289l108 399h-280v96h305l104 397h103l-105 -397h336l106 397h103l-105 -397h265v-96h-289l-107 -399h279v-95h-307l-107 -397h-102l104 397h-336l-106 -397h-101l105 397h-262zM508 492h340l108 399h-338z" />
<glyph unicode="$" horiz-adv-x="1255" d="M199 324l106 61q16 -32 40.5 -64t59 -59t81 -46.5t106.5 -25.5v476q-100 21 -169.5 50.5t-113 69t-63 89.5t-19.5 112t21 118.5t65.5 100.5t113.5 71.5t165 31.5v104h102v-104q72 -4 129.5 -21t103 -46t80.5 -69.5t64 -91.5l-108 -59q-19 37 -43.5 68t-57 55t-74.5 38.5 t-94 18.5v-438q78 -18 148 -43t122 -65t82.5 -98t30.5 -142q0 -81 -30 -142t-81.5 -102.5t-121.5 -63.5t-150 -26v-215h-102v215q-83 4 -146 28t-110 58.5t-80 75.5t-57 80zM356 989q0 -48 20 -81t53 -56t75.5 -38t87.5 -26v414q-66 -4 -111 -21t-73 -44.5t-40 -65 t-12 -82.5zM694 190q48 3 93.5 17t81 40.5t57.5 67.5t22 99q0 88 -61 142.5t-193 86.5v-453z" />
<glyph unicode="%" horiz-adv-x="2052" d="M123 975q0 224 90.5 331t263.5 107q181 0 269 -114t88 -324q0 -218 -88.5 -328t-268.5 -110q-185 0 -269.5 107.5t-84.5 330.5zM256 975q0 -86 10.5 -149.5t35.5 -105t67.5 -61.5t107.5 -20q64 0 107 21t69 63t37.5 105t11.5 147q0 66 -8.5 126.5t-32.5 106.5t-68 73.5 t-116 27.5q-65 0 -108 -21.5t-68 -63.5t-35 -104.5t-10 -144.5zM565 -51l799 1487h125l-801 -1487h-123zM1219 408q0 224 90 331t264 107q181 0 267.5 -112.5t86.5 -325.5q0 -439 -354 -439q-94 0 -161 27.5t-110 82t-63 137t-20 192.5zM1350 408q0 -85 10.5 -148t36 -105 t68.5 -62.5t108 -20.5q63 0 105.5 20.5t69 62.5t37.5 105t11 148q0 67 -8 127t-32 106t-68 73t-115 27q-65 0 -108 -21t-68.5 -63t-36 -104.5t-10.5 -144.5z" />
<glyph unicode="&#x26;" horiz-adv-x="1430" d="M160 352q0 72 18.5 126.5t59 102.5t105.5 94.5t157 100.5q-44 51 -76.5 95.5t-54.5 85t-32.5 77.5t-10.5 74q0 152 89.5 228.5t262.5 76.5q81 0 141.5 -20.5t101 -56t60.5 -83.5t20 -102q0 -62 -21 -116.5t-60.5 -103.5t-97.5 -93.5t-132 -87.5l371 -439q42 53 79 127 t62 170l121 -30q-28 -116 -77 -210t-103 -153l184 -215h-172l-104 123q-39 -32 -82.5 -59.5t-93.5 -48t-109.5 -32.5t-130.5 -12q-117 0 -205.5 28.5t-148.5 79t-90.5 120.5t-30.5 153zM297 352q0 -65 26.5 -114.5t72.5 -84t108.5 -52t134.5 -17.5q108 0 191.5 37.5 t142.5 93.5l-395 471q-91 -54 -146 -95t-85 -78t-40 -75t-10 -86zM459 1112q0 -60 40 -123.5t115 -148.5q72 40 121 79.5t78.5 78t42 76t12.5 75.5q0 34 -12 63t-36.5 50t-61.5 33t-86 12q-69 0 -111 -19t-64.5 -48t-30 -63t-7.5 -65z" />
<glyph unicode="'" horiz-adv-x="561" d="M197 1452h165l-34 -520h-95z" />
<glyph unicode="(" horiz-adv-x="766" d="M170 561q0 144 21.5 273.5t64.5 247t108.5 226t153.5 210.5h146q-95 -94 -164.5 -204t-115.5 -232t-68.5 -253.5t-22.5 -267.5q0 -135 22 -260.5t67.5 -243.5t115.5 -230.5t166 -221.5h-146q-91 111 -156.5 220.5t-108 225t-63 241t-20.5 269.5z" />
<glyph unicode=")" horiz-adv-x="797" d="M131 -395q193 213 282 449.5t89 506.5q0 275 -90.5 517t-280.5 440h145q88 -102 154 -210.5t110 -226t65.5 -247t21.5 -273.5q0 -147 -22 -274.5t-66 -243t-109.5 -223.5t-153.5 -215h-145z" />
<glyph unicode="*" horiz-adv-x="967" d="M123 1016l285 155l-285 156l45 78l272 -158l-4 273h92l-4 -273l275 158l45 -78l-287 -156l287 -155l-45 -78l-275 160l4 -273h-92l4 273l-272 -160z" />
<glyph unicode="+" horiz-adv-x="1427" d="M178 528v111h477v481h111v-481h481v-111h-481v-477h-111v477h-477z" />
<glyph unicode="," d="M172 78q0 46 22 69t74 23q101 0 101 -115q0 -56 -10.5 -107.5t-26 -95t-34.5 -75.5t-36 -49h-76q20 22 35.5 54t26 67t15.5 71t5 66q-55 0 -75.5 22t-20.5 70z" />
<glyph unicode="-" horiz-adv-x="848" d="M113 463v127h622v-127h-622z" />
<glyph unicode="." d="M172 78q0 48 22 70t74 22q54 0 77.5 -21.5t23.5 -70.5q0 -53 -25 -72.5t-76 -19.5q-55 0 -75.5 23.5t-20.5 68.5z" />
<glyph unicode="/" horiz-adv-x="952" d="M18 -299l727 1819h123l-729 -1819h-121z" />
<glyph unicode="0" horiz-adv-x="1255" d="M137 686q0 185 29.5 320.5t89.5 223.5t152.5 130.5t218.5 42.5t218.5 -42.5t153 -130.5t90 -223t29.5 -319q0 -368 -119.5 -543.5t-371.5 -175.5q-126 0 -218.5 42.5t-152.5 131t-89.5 223.5t-29.5 320zM281 686q0 -156 21 -269t63.5 -186t107.5 -108t154 -35 q88 0 153 35t108 108.5t64 186.5t21 270t-21 269.5t-64 185t-108 107t-153 34.5q-91 0 -156.5 -35t-107.5 -108.5t-62 -186.5t-20 -268z" />
<glyph unicode="1" horiz-adv-x="1255" d="M297 1004v112q80 4 142 27t107.5 59.5t75 83.5t44.5 98h98v-1384h-133v1128q-28 -30 -66 -53.5t-82 -39t-91.5 -23.5t-94.5 -8z" />
<glyph unicode="2" horiz-adv-x="1180" d="M152 1178q18 35 49.5 76t83 76.5t124.5 59t173 23.5q85 0 162 -21t135 -67.5t92.5 -120t34.5 -178.5q0 -59 -12 -111t-34.5 -99.5t-54 -93t-71.5 -91.5q-43 -48 -92 -100.5t-111 -113.5t-141 -133.5t-181 -160.5h742v-123h-895v143q76 64 160.5 141.5t165.5 157 t152.5 155.5t119.5 138q46 62 76 130.5t30 156.5q0 67 -21.5 118t-59.5 84.5t-90.5 50.5t-113.5 17q-112 0 -187 -48.5t-122 -133.5z" />
<glyph unicode="3" horiz-adv-x="1180" d="M121 164l106 72q21 -31 52.5 -57.5t70 -46t83 -31t91.5 -11.5q87 0 151 18t106 56.5t62.5 98.5t20.5 143q0 136 -84 206t-268 70h-92v119h76q77 0 140.5 17t108.5 50t70 82t25 113q0 117 -74.5 173t-206.5 56q-111 0 -187.5 -43.5t-127.5 -124.5l-113 72q25 42 62.5 81 t90 69t122.5 48.5t161 18.5q110 0 188.5 -26t129 -71t74.5 -105.5t24 -129.5q0 -137 -70 -216.5t-204 -114.5q64 -6 118.5 -31.5t94.5 -69.5t63 -107t23 -145q0 -106 -32 -185.5t-93.5 -133t-150.5 -80.5t-204 -27q-61 0 -122.5 13t-116 38t-98.5 61t-70 81z" />
<glyph unicode="4" horiz-adv-x="1255" d="M66 346v133l743 905h111v-919h200v-119h-200v-346h-132v346h-722zM203 465h585v706z" />
<glyph unicode="5" horiz-adv-x="1180" d="M143 162l111 76q18 -29 47 -56t66 -47.5t81.5 -32.5t94.5 -12q87 0 149 26t102 71.5t59 108t19 136.5q0 80 -24.5 136.5t-67 92.5t-101 53t-126.5 17q-74 0 -138 -19t-118 -55h-72l74 727h682v-122h-571l-48 -465q22 11 50.5 20.5t58.5 16t59.5 10.5t55.5 4 q99 0 178.5 -26.5t135.5 -78t86 -128.5t30 -179q0 -108 -30.5 -194.5t-90 -146.5t-147 -92t-201.5 -32q-75 0 -139 15.5t-115.5 42t-89.5 61t-60 72.5z" />
<glyph unicode="6" horiz-adv-x="1180" d="M133 670q0 153 30 288t93.5 236t163 160t239.5 59q110 0 193.5 -34.5t153.5 -108.5l-88 -101q-28 30 -56 53.5t-59.5 39t-67.5 24t-80 8.5q-90 0 -157.5 -39t-113 -109.5t-71 -168.5t-32.5 -215q28 19 66 38.5t84 35.5t98 26t108 10q94 0 171.5 -24t132 -75.5 t84.5 -131.5t30 -192q0 -114 -30 -203t-87 -150t-140.5 -93t-191.5 -32q-128 -1 -217.5 44t-146.5 133.5t-83 219.5t-26 302zM281 653q0 -163 22 -271t64 -173t102.5 -92t138.5 -27q79 0 137 25t95.5 70.5t56 110.5t18.5 146q0 89 -22.5 149t-63 96t-98 51.5t-127.5 15.5 q-39 0 -82 -8t-85.5 -21.5t-82.5 -32t-73 -39.5z" />
<glyph unicode="7" horiz-adv-x="1255" d="M152 1262v122h929v-129l-530 -1255h-150l543 1262h-792z" />
<glyph unicode="8" horiz-adv-x="1180" d="M121 346q0 140 82.5 234.5t245.5 156.5q-65 31 -119 61.5t-92.5 68.5t-60 86.5t-21.5 115.5q0 76 26.5 139.5t80.5 109t136 70.5t193 25q213 0 323.5 -87.5t110.5 -254.5q0 -73 -26.5 -126.5t-68.5 -93t-93.5 -67.5t-100.5 -49q72 -34 132 -69t102.5 -79.5t66 -102.5 t23.5 -138q0 -94 -32 -164t-92.5 -117t-147.5 -70.5t-197 -23.5q-236 0 -353.5 96t-117.5 279zM258 344q0 -120 82.5 -190t251.5 -70q170 0 251 70t81 192q0 58 -19.5 103t-60 83t-103 72.5t-147.5 73.5q-83 -30 -146 -63t-105 -73t-63.5 -88.5t-21.5 -109.5zM293 1073 q0 -39 13 -72t47 -65t93.5 -65.5t151.5 -73.5q73 27 127.5 55t91 60t54.5 69.5t18 85.5q0 52 -17.5 95t-54 73.5t-92.5 47.5t-133 17q-78 0 -134.5 -16.5t-93 -46.5t-54 -71.5t-17.5 -92.5z" />
<glyph unicode="9" horiz-adv-x="1180" d="M123 936q0 114 30.5 202.5t88 149.5t141 93t190.5 32q129 0 219 -45t146 -132.5t81 -216t25 -294.5q0 -104 -12.5 -200.5t-39.5 -180.5t-69 -152.5t-100.5 -117.5t-135.5 -76t-173 -27q-119 0 -206 40.5t-152 111.5l88 98q27 -30 56 -54t62 -41.5t71.5 -26.5t84.5 -9 q94 0 162.5 39t114.5 109t70.5 168t31.5 217q-29 -20 -67 -40t-83.5 -36t-97 -26.5t-106.5 -10.5q-95 0 -172.5 24.5t-132.5 76.5t-85 132.5t-30 192.5zM262 942q0 -90 22.5 -150t64 -95.5t98.5 -50.5t126 -15q39 0 82.5 8t86 21.5t83 31t74.5 37.5q0 135 -16.5 240.5 t-55 177.5t-101.5 109.5t-155 37.5q-79 0 -137 -25t-96.5 -71t-57 -111t-18.5 -145z" />
<glyph unicode=":" d="M172 78q0 48 22 70t74 22q54 0 77.5 -21.5t23.5 -70.5q0 -53 -25 -72.5t-76 -19.5q-55 0 -75.5 23.5t-20.5 68.5zM172 956q0 50 22 71.5t74 21.5q54 0 77.5 -21.5t23.5 -71.5q0 -52 -25 -72t-76 -20q-55 0 -75.5 24.5t-20.5 67.5z" />
<glyph unicode=";" d="M172 78q0 46 22 69t74 23q53 0 77 -28t24 -87q0 -56 -10.5 -107.5t-26 -95t-34.5 -75.5t-36 -49h-76q20 22 35.5 54t26 67t15.5 71t5 66q-55 0 -75.5 22t-20.5 70zM172 956q0 50 22 71.5t74 21.5q54 0 77.5 -21.5t23.5 -71.5q0 -52 -25 -72t-76 -20q-55 0 -75.5 24.5 t-20.5 67.5z" />
<glyph unicode="&#x3c;" horiz-adv-x="1427" d="M180 543v88l1067 454v-120l-897 -379l897 -377v-121z" />
<glyph unicode="=" horiz-adv-x="1427" d="M178 305v111h1069v-111h-1069zM178 756v110h1069v-110h-1069z" />
<glyph unicode="&#x3e;" horiz-adv-x="1427" d="M180 88v121l897 377l-897 379v120l1067 -454v-88z" />
<glyph unicode="?" horiz-adv-x="1036" d="M86 1225q21 39 56.5 73t84 59.5t110 40.5t136.5 15q93 0 172.5 -22t138 -66.5t92 -111t33.5 -156.5q0 -85 -29 -152.5t-83 -125t-131 -109.5t-172 -105v-213h-127v271q106 54 181.5 102.5t124 97.5t71 103.5t22.5 120.5q0 56 -18.5 101t-55.5 77t-91 49.5t-126 17.5 q-59 0 -104 -11.5t-79 -31t-58 -44.5t-39 -52zM330 78q0 49 23 70.5t77 21.5q57 0 79.5 -21.5t22.5 -70.5q0 -53 -24.5 -72.5t-77.5 -19.5q-29 0 -48.5 6t-31 18t-16 29t-4.5 39z" />
<glyph unicode="@" horiz-adv-x="1927" d="M129 553q0 123 29 235t83 207.5t131 172.5t172 131.5t206.5 84t234.5 29.5q201 0 356 -57.5t260.5 -165.5t159.5 -262.5t54 -347.5q0 -105 -19 -206t-63 -180.5t-115.5 -128.5t-175.5 -49q-53 0 -92.5 9t-67 28t-44 49.5t-24.5 73.5q-74 -60 -152.5 -96.5t-156.5 -36.5 q-103 0 -172.5 41t-112 108t-61 151t-18.5 171q0 114 25 207.5t76 160t127.5 102.5t180.5 36q42 0 80.5 -10t72.5 -24.5t60.5 -31t44.5 -30.5v67h129v-739q0 -37 6.5 -61.5t20 -39.5t34.5 -21.5t50 -6.5q65 0 111.5 38t76.5 101t44 144.5t14 168.5q0 168 -43 303.5t-131 230 t-220.5 145.5t-312.5 51q-110 0 -207.5 -26t-179.5 -74t-146.5 -116t-110 -151.5t-69.5 -181.5t-24 -205q0 -178 52 -318t148 -237t231 -148t302 -51q119 0 222 11t194 32l26 -110q-45 -10 -98 -17.5t-110 -12t-117 -7t-119 -2.5q-188 0 -345 58t-269.5 168t-175 270.5 t-62.5 365.5zM672 518q0 -65 11 -128.5t39.5 -114t77.5 -82t126 -31.5q37 0 74.5 11.5t73.5 30t69.5 40.5t62.5 43v524q-24 17 -53.5 33.5t-61.5 30t-64.5 22t-61.5 8.5q-81 0 -137 -26t-90.5 -76t-50 -122t-15.5 -163z" />
<glyph unicode="A" horiz-adv-x="1264" d="M63 0l480 1384h174l483 -1384h-147l-135 399h-578l-135 -399h-142zM381 522h493l-247 731z" />
<glyph unicode="B" horiz-adv-x="1257" d="M199 0v1384h395q125 0 210 -19.5t137 -58.5t74.5 -97t22.5 -136q0 -67 -14 -118.5t-41.5 -90t-67 -65t-90.5 -43.5q65 -9 121 -33.5t97 -67t64 -103.5t23 -144q0 -107 -34 -184t-99.5 -127t-162 -73.5t-220.5 -23.5h-415zM334 123h219q102 0 182.5 11t136.5 41.5 t85.5 86.5t29.5 146q0 86 -28 137.5t-80 79.5t-124.5 36.5t-162.5 8.5h-258v-547zM334 791h221q177 0 259.5 59.5t82.5 191.5q0 63 -17 105.5t-56 68.5t-103 37t-158 11h-229v-473z" />
<glyph unicode="C" horiz-adv-x="1315" d="M145 692q0 174 34 308.5t105 226t180.5 139t260.5 47.5q97 0 173 -19t133.5 -54t100 -84t74.5 -109l-116 -74q-26 48 -58 87.5t-75.5 68.5t-100 45t-131.5 16q-118 0 -201 -39.5t-135 -116t-76 -187.5t-24 -255t24 -255t77 -187.5t137 -116t204 -39.5q84 0 145.5 20 t105.5 52t74.5 71.5t53.5 79.5l115 -71q-33 -59 -75 -109t-100 -87t-135.5 -58t-181.5 -21q-302 0 -445 181t-143 540z" />
<glyph unicode="D" horiz-adv-x="1282" d="M186 0v1384h324q163 0 282.5 -35t198.5 -116t117.5 -213.5t38.5 -327.5q0 -203 -41.5 -336.5t-122 -212.5t-199 -111t-272.5 -32h-326zM322 123h176q136 0 232 28.5t156 95.5t87.5 176.5t27.5 270.5q0 157 -26.5 265.5t-86 176t-155.5 97t-235 29.5h-176v-1139z" />
<glyph unicode="E" horiz-adv-x="1155" d="M199 0v1384h819v-122h-684v-467h588v-123h-588v-549h684v-123h-819z" />
<glyph unicode="F" horiz-adv-x="1110" d="M199 0v1384h811v-122h-676v-461h577v-123h-577v-678h-135z" />
<glyph unicode="G" horiz-adv-x="1378" d="M145 694q0 167 31 300t100 226t179 143t268 50q98 0 173 -19.5t131 -55t97 -84.5t72 -107l-115 -74q-27 53 -60.5 93.5t-77.5 68t-100 41.5t-126 14q-113 0 -194 -37.5t-133 -112.5t-76.5 -187t-24.5 -261q0 -140 23 -251t76 -188t139.5 -118t213.5 -41q42 0 81 4.5 t77 14t77.5 24t82.5 33.5v389h-369v123h504v-588q-58 -30 -109.5 -53t-104.5 -38.5t-112 -23.5t-131 -8q-164 0 -276.5 50.5t-183 144.5t-101.5 227.5t-31 300.5z" />
<glyph unicode="H" horiz-adv-x="1341" d="M199 0v1384h135v-606h674v606h135v-1384h-135v655h-674v-655h-135z" />
<glyph unicode="I" horiz-adv-x="719" d="M102 0v119h189v1147h-189v118h514v-118h-190v-1147h190v-119h-514z" />
<glyph unicode="J" horiz-adv-x="864" d="M66 18l51 119q17 -9 40.5 -17t49.5 -14.5t52.5 -10t49.5 -3.5q70 0 113.5 21.5t67.5 66t32 112.5t8 161v931h136v-989q0 -104 -18 -183.5t-59.5 -133.5t-110 -81.5t-169.5 -27.5q-31 0 -64.5 4t-65.5 10.5t-61.5 15.5t-51.5 19z" />
<glyph unicode="K" horiz-adv-x="1255" d="M199 0v1384h135v-739l661 739h170l-587 -649l612 -735h-176l-527 639l-153 -164v-475h-135z" />
<glyph unicode="L" horiz-adv-x="1038" d="M199 0v1384h135v-1261h649v-123h-784z" />
<glyph unicode="M" horiz-adv-x="1556" d="M199 0v1384h190l391 -806l389 806h189v-1384h-131v1219l-406 -828h-90l-401 828v-1219h-131z" />
<glyph unicode="N" horiz-adv-x="1374" d="M199 0v1384h196l647 -1165v1165h134v-1384h-160l-686 1235v-1235h-131z" />
<glyph unicode="O" horiz-adv-x="1364" d="M135 692q0 166 29.5 299.5t94.5 227t169 144t254 50.5t254.5 -50t169.5 -143t94 -226.5t29 -301.5q0 -167 -29 -300.5t-94 -227t-169.5 -143.5t-254.5 -50t-254 50t-169 144t-94.5 227t-29.5 300zM279 692q0 -144 21 -255t68.5 -187.5t124.5 -116t189 -39.5 q111 0 188 39.5t124 115.5t68 187.5t21 255.5t-21 255.5t-68 187.5t-124 115.5t-188 39.5q-112 0 -189 -39t-124.5 -115t-68.5 -187.5t-21 -256.5z" />
<glyph unicode="P" horiz-adv-x="1153" d="M199 0v1384h383q238 0 350 -107.5t112 -324.5q0 -126 -29 -214t-88.5 -143.5t-149.5 -80.5t-212 -25h-231v-489h-135zM334 612h209q93 0 160 15t110.5 52.5t64.5 102.5t21 166q0 90 -22.5 150.5t-65 96.5t-103.5 51.5t-139 15.5h-235v-650z" />
<glyph unicode="Q" horiz-adv-x="1364" d="M135 692q0 169 30 303t96 227t170.5 142t252.5 49q144 0 247.5 -47.5t169.5 -139.5t97 -226t31 -308q0 -156 -25 -282t-80.5 -218t-143.5 -148t-214 -71q14 -39 35.5 -70.5t53.5 -53.5t75.5 -34t101.5 -12q17 0 38.5 2t43.5 6t42.5 9t35.5 10l41 -113q-48 -18 -102.5 -26 t-102.5 -8q-87 0 -154.5 19.5t-118 56.5t-85 91t-56.5 123q-121 11 -211 59.5t-149.5 137t-89 218.5t-29.5 304zM279 692q0 -144 21 -255t68.5 -187.5t124.5 -116t189 -39.5t188.5 39.5t124 115.5t68 187.5t20.5 255.5t-21 255.5t-68 187.5t-124 115.5t-188 39.5 q-112 0 -189 -39.5t-124.5 -115.5t-68.5 -187.5t-21 -255.5z" />
<glyph unicode="R" horiz-adv-x="1212" d="M199 0v1384h393q114 0 200.5 -20t145.5 -65.5t89 -119t30 -180.5q0 -92 -19.5 -159.5t-57 -114.5t-92 -75.5t-124.5 -43.5l377 -606h-162l-354 586h-291v-586h-135zM334 707h250q94 0 157 15.5t101 49.5t54.5 88.5t16.5 132.5q0 73 -17 124.5t-55 84t-99.5 47.5 t-151.5 15h-256v-557z" />
<glyph unicode="S" horiz-adv-x="1225" d="M111 248l116 69q20 -40 52 -79.5t78 -71.5t107.5 -52t141.5 -20q73 0 136.5 15t110.5 47t74 81.5t27 118.5q0 64 -21 108.5t-64 77t-109 56.5t-156 47q-120 31 -207 60.5t-144 71t-84.5 101t-27.5 150.5q0 86 28 157t84.5 121.5t141.5 78.5t199 28q86 0 156 -17.5 t126 -50t100 -78.5t79 -104l-113 -76q-26 45 -59 82.5t-75 64.5t-94.5 41.5t-117.5 14.5q-79 0 -138 -18t-98 -51t-58 -80t-19 -105q0 -56 17.5 -93.5t58.5 -65t109 -50t169 -47.5q107 -27 192 -58t144.5 -77t91 -113.5t31.5 -169.5q0 -107 -38 -181t-103 -121t-153 -68 t-188 -21q-105 0 -184 21t-138.5 57.5t-103 87.5t-77.5 111z" />
<glyph unicode="T" horiz-adv-x="1174" d="M43 1262v122h1085v-122h-475v-1262h-135v1262h-475z" />
<glyph unicode="U" horiz-adv-x="1378" d="M193 578v806h135v-786q0 -144 17 -241t59 -156.5t111.5 -85t174.5 -25.5q106 0 175.5 25.5t110 85t57 156t16.5 237.5v790h135v-806q0 -170 -26 -286.5t-84.5 -188t-152.5 -103t-229 -31.5q-141 0 -237 32.5t-154 105t-83 188.5t-25 283z" />
<glyph unicode="V" horiz-adv-x="1214" d="M63 1384h142l401 -1241l406 1241h139l-463 -1384h-170z" />
<glyph unicode="W" horiz-adv-x="1718" d="M80 1384h137l277 -1202l278 1202h168l287 -1212l278 1212h133l-325 -1384h-176l-281 1204l-283 -1204h-170z" />
<glyph unicode="X" horiz-adv-x="1169" d="M66 0l444 694l-432 690h155l357 -585l362 585h152l-440 -686l440 -698h-156l-364 594l-371 -594h-147z" />
<glyph unicode="Y" horiz-adv-x="1126" d="M51 1384h150l362 -720l367 720h145l-444 -847v-537h-137v530z" />
<glyph unicode="Z" horiz-adv-x="1171" d="M102 0v129l779 1133h-748v122h905v-122l-784 -1139h801v-123h-953z" />
<glyph unicode="[" horiz-adv-x="825" d="M215 -395v1884h457v-107h-338v-1673h338v-104h-457z" />
<glyph unicode="\" horiz-adv-x="952" d="M82 1520h125l727 -1819h-123z" />
<glyph unicode="]" horiz-adv-x="825" d="M154 -291h335v1673h-335v107h456v-1884h-456v104z" />
<glyph unicode="^" horiz-adv-x="1214" d="M154 594l389 790h129l389 -790h-121l-332 676l-334 -676h-120z" />
<glyph unicode="_" horiz-adv-x="1024" d="M-10 -164h1044v-92h-1044v92z" />
<glyph unicode="`" horiz-adv-x="1106" d="M326 1569h176l186 -361h-104z" />
<glyph unicode="a" horiz-adv-x="1079" d="M121 295q0 82 24 143t75 103.5t130.5 67.5t190.5 36l235 23v53q0 66 -15 112.5t-47.5 76.5t-83 43.5t-120.5 13.5q-59 0 -102.5 -10.5t-75 -28t-52.5 -40.5t-36 -48l-103 63q22 36 52.5 68t75 56t104 38t139.5 14q106 0 180.5 -20t122 -63.5t69 -113t21.5 -169.5v-713 h-129v152q-45 -39 -87 -72.5t-85.5 -58t-90 -38.5t-99.5 -14q-74 0 -129 22.5t-91.5 65t-54.5 103t-18 135.5zM254 299q0 -114 46 -165.5t144 -51.5q37 0 72.5 11t74.5 33.5t84 58t101 83.5v293l-188 -18q-90 -9 -153.5 -25.5t-103.5 -45t-58.5 -71t-18.5 -102.5z" />
<glyph unicode="b" horiz-adv-x="1151" d="M182 0v1489h129v-555q31 31 67.5 58t77 46t84.5 30t89 11q107 0 182 -42.5t122 -116.5t68 -173.5t21 -214.5q0 -123 -24 -226.5t-74 -178.5t-126.5 -116.5t-181.5 -41.5q-78 0 -157.5 36t-147.5 99v-104h-129zM311 225q69 -65 145.5 -104t147.5 -39q62 0 114.5 26 t90.5 80.5t59 138.5t21 201q0 101 -16 182t-50 137.5t-87 87t-128 30.5q-78 0 -153.5 -43t-143.5 -111v-586z" />
<glyph unicode="c" horiz-adv-x="1016" d="M129 520q0 128 24.5 231.5t77 176t135 112t199.5 39.5q124 0 207.5 -49t140.5 -151l-106 -64q-21 39 -45 67.5t-53.5 47t-65.5 28t-82 9.5q-157 0 -228 -114t-71 -337q0 -98 15.5 -178t51 -137.5t94 -89t144.5 -31.5q49 0 86.5 10.5t67.5 30.5t54 48.5t46 63.5l105 -65 q-25 -47 -58 -84t-77 -62.5t-99.5 -39t-124.5 -13.5q-123 0 -206.5 42t-135 115.5t-74 174.5t-22.5 219z" />
<glyph unicode="d" horiz-adv-x="1151" d="M129 516q0 109 23.5 210.5t73 180t126 125.5t183.5 47q90 0 163 -33.5t142 -87.5v531h129v-1489h-129v115q-32 -31 -69.5 -57.5t-78.5 -46t-85 -31t-89 -11.5q-98 0 -171 37t-121.5 107.5t-72.5 172t-24 230.5zM262 520q0 -99 15 -180t47.5 -138t83.5 -88.5t124 -31.5 q43 0 84.5 12.5t80.5 34t75 49.5t68 60v600q-75 60 -148 93.5t-145 33.5q-65 0 -118 -30.5t-90 -87.5t-57 -139.5t-20 -187.5z" />
<glyph unicode="e" horiz-adv-x="1051" d="M129 516q0 133 23 237.5t73.5 177t131 110.5t196.5 38q102 0 175 -32t119.5 -92.5t68.5 -148t22 -198.5v-84h-676q0 -115 14.5 -199t49 -138.5t91.5 -80.5t142 -26q42 0 77 7.5t65.5 25t58.5 45t55 67.5l103 -67q-28 -45 -61.5 -80t-77 -59t-99 -37t-127.5 -13 q-104 0 -183 30t-132.5 95.5t-81 169.5t-27.5 252zM264 629h547q-3 177 -66 259.5t-196 82.5q-69 0 -119.5 -20t-85 -62t-54 -106.5t-26.5 -153.5z" />
<glyph unicode="f" horiz-adv-x="618" d="M47 938v111h164v116q0 91 15 158t49.5 111t90 65t136.5 21q60 0 114.5 -14.5t90.5 -32.5l-43 -109q-14 8 -33.5 16t-41 14t-44 9.5t-43.5 3.5q-46 0 -77 -13t-50 -42t-27 -76t-8 -115v-112h244v-111h-244v-938h-129v938h-164z" />
<glyph unicode="g" horiz-adv-x="1151" d="M129 535q0 114 24 213t74.5 172.5t128 116t185.5 42.5q83 0 158 -32.5t141 -88.5v91h129v-1026q0 -111 -24 -190.5t-73.5 -130t-125.5 -74t-181 -23.5q-127 0 -220 29.5t-148 72.5l55 100q51 -42 128 -68t185 -26q75 0 127 17t85 53.5t48 94t15 138.5v127 q-30 -29 -66.5 -55t-78 -45.5t-86.5 -31t-93 -11.5q-101 0 -174 36t-120 104.5t-70 168t-23 226.5zM262 539q0 -79 9 -155.5t38 -136.5t83 -97t143 -37q46 0 88.5 13.5t81 35.5t72.5 49.5t63 54.5v574q-73 57 -143.5 91t-145.5 34q-76 0 -130.5 -31t-90 -87.5t-52 -135 t-16.5 -172.5z" />
<glyph unicode="h" horiz-adv-x="1137" d="M182 0v1489h129v-606q44 41 89 77t91.5 62.5t93.5 41.5t95 15q84 0 139 -25t87 -73.5t44.5 -119t12.5 -161.5v-700h-129v651q0 89 -8 148t-28 94t-54.5 49t-86.5 14q-69 0 -160 -51.5t-186 -142.5v-762h-129z" />
<glyph unicode="i" horiz-adv-x="494" d="M156 1305q0 45 20 65.5t70 20.5q51 0 71.5 -20t20.5 -66q0 -51 -21.5 -69.5t-70.5 -18.5q-51 0 -70.5 23t-19.5 65zM182 0v1049h129v-1049h-129z" />
<glyph unicode="j" horiz-adv-x="508" d="M-141 -365l32 107q36 -14 73 -21.5t79 -7.5q43 0 72 14t46 44t24.5 76.5t7.5 111.5v1090h129v-1104q0 -86 -13.5 -149.5t-46 -106t-87.5 -63.5t-138 -21q-40 0 -86 7.5t-92 22.5zM166 1305q0 45 21.5 65.5t70.5 20.5q51 0 71.5 -20t20.5 -66q0 -51 -22 -69.5t-70 -18.5 q-53 0 -72.5 23t-19.5 65z" />
<glyph unicode="k" horiz-adv-x="1022" d="M182 0v1489h129v-973l469 533h160l-426 -471l449 -578h-162l-371 489l-119 -131v-358h-129z" />
<glyph unicode="l" horiz-adv-x="518" d="M195 0v1489h129v-1489h-129z" />
<glyph unicode="m" horiz-adv-x="1673" d="M182 0v1049h129v-166q39 42 80 78t82.5 62t84.5 41t87 15q106 0 167.5 -50.5t80.5 -160.5q44 48 85 87t83.5 66.5t87.5 42.5t96 15q80 0 129.5 -28t77.5 -78.5t37.5 -120t9.5 -152.5v-700h-129v645q0 94 -6 154.5t-23 95.5t-46.5 48t-75.5 13q-40 0 -77.5 -14 t-75.5 -39.5t-77.5 -61t-83.5 -79.5v-762h-129v651q0 93 -7 152.5t-24 93t-47.5 46.5t-76.5 13q-38 0 -77 -16t-78 -43t-78 -62t-77 -73v-762h-129z" />
<glyph unicode="n" horiz-adv-x="1137" d="M182 0v1049h129v-166q45 43 90.5 79t92 62t93.5 40.5t95 14.5q84 0 138 -25t86 -73.5t44.5 -119t12.5 -161.5v-700h-129v651q0 88 -8 147t-28 94t-54.5 49.5t-86.5 14.5q-69 0 -160 -51.5t-186 -142.5v-762h-129z" />
<glyph unicode="o" horiz-adv-x="1141" d="M129 522q0 122 24 224.5t77 176.5t137 115t204 41q117 0 200.5 -39.5t137 -112.5t78.5 -175.5t25 -229.5q0 -125 -24 -226.5t-77 -174.5t-137 -112.5t-203 -39.5t-203 39.5t-137 112.5t-77.5 174.5t-24.5 226.5zM262 522q0 -104 16.5 -186t53 -139t95.5 -87t144 -30 q83 0 141.5 29.5t95 86.5t53 139t16.5 187q0 106 -16 189t-52 140t-94.5 86.5t-143.5 29.5q-86 0 -145 -30.5t-95.5 -88t-52.5 -140t-16 -186.5z" />
<glyph unicode="p" horiz-adv-x="1151" d="M182 -395v1444h129v-115q31 31 67.5 58t77 46t84.5 30t89 11q106 0 180.5 -42.5t121.5 -116.5t69 -173.5t22 -214.5q0 -123 -25 -226.5t-76 -178.5t-128.5 -116.5t-182.5 -41.5q-77 0 -153.5 34.5t-145.5 100.5v-499h-129zM311 225q69 -65 143.5 -104t145.5 -39 q62 0 115 26t91.5 80.5t60.5 138.5t22 201q0 101 -16.5 182t-51 137.5t-87.5 87t-126 30.5q-80 0 -154.5 -42.5t-142.5 -111.5v-586z" />
<glyph unicode="q" horiz-adv-x="1151" d="M129 516q0 109 22.5 210.5t71 180t124.5 125.5t183 47q90 0 166 -35t144 -86v91h129v-1444h-129v510q-32 -31 -69.5 -57.5t-78.5 -46t-85 -31t-89 -11.5q-100 0 -173 37t-121 107.5t-71.5 172t-23.5 230.5zM262 520q0 -98 14.5 -179t46.5 -138.5t83.5 -89t125.5 -31.5 q43 0 84 12.5t80 33.5t75 49.5t69 60.5v600q-75 60 -150 93.5t-147 33.5q-65 0 -117 -30.5t-88.5 -87.5t-56 -139.5t-19.5 -187.5z" />
<glyph unicode="r" horiz-adv-x="797" d="M182 0v1049h129v-181q45 45 85.5 81.5t81 62t82 39.5t87.5 14q29 0 53 -5t45 -16l-28 -122q-35 14 -76 14q-48 0 -87.5 -12t-77.5 -36t-77.5 -59.5t-87.5 -83.5v-745h-129z" />
<glyph unicode="s" horiz-adv-x="973" d="M117 154l104 65q35 -63 98.5 -101t163.5 -38q52 0 97 8.5t78 29.5t52 56.5t19 89.5q0 42 -12 72.5t-42.5 54t-82.5 42.5t-133 40q-84 22 -144.5 47t-100 60.5t-58.5 85t-19 120.5q0 58 21.5 111.5t66 93.5t111.5 64t158 24q69 0 123.5 -15t96.5 -40.5t72 -59.5t50 -71 l-105 -62q-15 28 -36.5 53t-50 43.5t-65.5 29t-85 10.5q-107 0 -168.5 -47t-61.5 -132q0 -41 11 -70t37 -50.5t70.5 -38.5t111.5 -35q101 -27 170.5 -55t112 -65t61 -86.5t18.5 -119.5q0 -74 -25.5 -130t-74 -93.5t-118 -56.5t-157.5 -19q-81 0 -142 17.5t-105.5 44.5 t-73 59.5t-43.5 63.5z" />
<glyph unicode="t" horiz-adv-x="723" d="M55 938v111h158v292h129v-292h276v-111h-276v-606q0 -73 7 -122t24.5 -78t47.5 -41.5t77 -12.5q35 0 76.5 8.5t70.5 19.5l33 -104q-40 -14 -89 -23.5t-100 -9.5q-78 0 -131 19.5t-85 61.5t-46 108t-14 159v621h-158z" />
<glyph unicode="u" horiz-adv-x="1137" d="M174 348v701h129v-654q0 -88 7.5 -146.5t27 -94t53.5 -50t86 -14.5q71 0 161 52t187 145v762h129v-1049h-129v166q-44 -42 -89.5 -78.5t-92 -62.5t-93 -41t-93.5 -15q-85 0 -139.5 25t-86.5 73.5t-44.5 119t-12.5 161.5z" />
<glyph unicode="v" horiz-adv-x="991" d="M57 1049h138l303 -891l301 891h133l-369 -1049h-137z" />
<glyph unicode="w" horiz-adv-x="1430" d="M82 1049h133l186 -861l258 861h117l262 -861l181 861h129l-244 -1049h-125l-264 870l-264 -870h-125z" />
<glyph unicode="x" horiz-adv-x="965" d="M59 0l351 522l-344 527h151l270 -431l273 431h143l-344 -519l344 -530h-155l-269 432l-276 -432h-144z" />
<glyph unicode="y" horiz-adv-x="1018" d="M4 -365l37 109q25 -14 61 -21.5t70 -7.5q75 0 129 59.5t98 176.5l41 104l-383 994h140l311 -832l315 832h138l-453 -1147q-32 -81 -67.5 -138t-76.5 -92t-89 -51t-105 -16q-21 0 -44.5 2t-46 6t-42 9.5t-33.5 12.5z" />
<glyph unicode="z" horiz-adv-x="936" d="M94 0v98l576 840h-564v111h719v-97l-577 -841h594v-111h-748z" />
<glyph unicode="{" horiz-adv-x="975" d="M102 508v110h19q85 0 144 22.5t95.5 68t53 113.5t16.5 159v170q0 87 27.5 155.5t78 116t121.5 72.5t158 25h59v-105h-47q-137 0 -206.5 -71t-69.5 -211v-175q0 -173 -70.5 -267.5t-199.5 -129.5q129 -32 199.5 -127t70.5 -268v-176q0 -142 64.5 -212.5t211.5 -70.5h47 v-102h-59q-91 0 -162.5 23.5t-121 70t-75.5 115.5t-26 159v170q0 88 -16 156.5t-52 114.5t-95 70t-146 24h-19z" />
<glyph unicode="|" horiz-adv-x="850" d="M367 -395v1915h116v-1915h-116z" />
<glyph unicode="}" horiz-adv-x="975" d="M100 -293h45q148 0 213.5 70.5t65.5 212.5v176q0 173 69.5 268t200.5 127q-129 35 -199.5 129.5t-70.5 267.5v175q0 140 -69.5 211t-209.5 71h-45v105h60q90 0 161 -25.5t120.5 -73.5t75.5 -116.5t26 -153.5v-170q0 -91 16.5 -159t53 -113.5t96 -68t145.5 -22.5h18v-110 h-18q-87 0 -146.5 -24t-96 -70t-52.5 -114.5t-16 -156.5v-170q0 -90 -26 -159t-75 -115.5t-120.5 -70t-161.5 -23.5h-60v102z" />
<glyph unicode="~" horiz-adv-x="1427" d="M164 631v125q85 68 159 98.5t136 30.5q61 0 127.5 -24.5t134 -54.5t132.5 -54.5t122 -24.5q39 0 75.5 11t72 29.5t70.5 44.5t71 56v-129q-29 -22 -60.5 -44t-67 -39.5t-75 -28.5t-84.5 -11q-40 0 -84.5 11.5t-91 29.5t-93.5 38t-91.5 38t-84.5 29.5t-73 11.5 q-41 0 -78.5 -11t-73.5 -30.5t-71 -45.5t-72 -56z" />
<glyph unicode="&#xa1;" d="M168 987q0 51 25.5 71.5t76.5 20.5q30 0 49.5 -6.5t31 -18.5t16 -29t4.5 -38q0 -49 -22.5 -70.5t-78.5 -21.5q-55 0 -78.5 21.5t-23.5 70.5zM195 -395l20 1093h107l22 -1093h-149z" />
<glyph unicode="&#xa2;" horiz-adv-x="1016" d="M129 520q0 128 24.5 231.5t77 176t135 112t199.5 39.5q33 0 68 -6l45 215h98l-51 -237q60 -22 106.5 -64.5t81.5 -107.5l-106 -64q-23 42 -49 71t-58 48l-180 -852q11 0 23 -1t24 -1q49 0 86.5 10.5t67.5 30.5t54 48.5t46 63.5l105 -65q-25 -47 -58 -84t-77 -62.5 t-99.5 -39t-124.5 -13.5q-18 0 -36 1t-35 3l-50 -233h-96l53 254q-76 24 -128 73.5t-84.5 118t-47 153.5t-14.5 181zM262 516q0 -152 37.5 -257t128.5 -150l180 854q-12 3 -24.5 3.5t-24.5 0.5q-155 0 -226 -114t-71 -337z" />
<glyph unicode="&#xa3;" horiz-adv-x="1255" d="M119 0v117q54 11 91 55.5t60.5 109.5t34 144.5t10.5 161.5h-172v104h168q-2 32 -12.5 68.5t-22 79t-21 92t-9.5 106.5q0 94 35 164t96.5 117t143.5 70.5t177 23.5q63 0 121.5 -11.5t111 -36.5t97.5 -65t82 -98l-111 -72q-47 74 -122.5 121t-178.5 47q-77 0 -135.5 -19.5 t-98 -55.5t-59.5 -86t-20 -111q0 -46 8.5 -91t20 -87t22 -81.5t13.5 -74.5h378v-104h-374q0 -164 -40.5 -286t-127.5 -185h850v-117h-1016z" />
<glyph unicode="&#xa4;" horiz-adv-x="1255" d="M137 1004l72 71l188 -188q51 40 109.5 60t120.5 20t120 -19t109 -59l188 186l72 -71l-186 -189q40 -51 59 -109t19 -120t-21 -119.5t-59 -108.5l186 -190l-70 -70l-190 187q-53 -41 -109 -58.5t-118 -17.5t-119.5 19.5t-108.5 56.5l-188 -187l-72 70l189 190 q-39 50 -58.5 108t-19.5 120t18.5 120.5t57.5 106.5zM362 586q0 -56 20.5 -104.5t56 -85.5t84 -58t104.5 -21q57 0 106 21t85.5 58t57.5 85.5t21 104.5q0 55 -20.5 104.5t-56.5 86.5t-85.5 59t-107.5 22q-57 0 -105.5 -21.5t-84 -58.5t-55.5 -86.5t-20 -105.5z" />
<glyph unicode="&#xa5;" horiz-adv-x="1255" d="M76 1384h151l404 -667l401 667h148l-412 -667h352v-99h-407l-19 -28v-135h426v-97h-426v-358h-135v358h-422v97h422v131l-20 32h-402v99h348z" />
<glyph unicode="&#xa6;" horiz-adv-x="850" d="M367 221h116v-616h-116v616zM367 903v617h116v-617h-116z" />
<glyph unicode="&#xa7;" horiz-adv-x="1067" d="M117 545q0 52 19 97t53.5 85t82 75.5t103.5 69.5q-51 34 -86.5 65t-58.5 62.5t-33.5 64.5t-10.5 71q0 60 23 111t69 88t116 58t165 21q67 0 122.5 -10t100.5 -29t80.5 -45.5t63.5 -60.5l-99 -76q-17 22 -42 42t-58 35.5t-74 24.5t-90 9q-118 0 -179.5 -39.5t-61.5 -124.5 q0 -31 11 -57t43.5 -55.5t90.5 -67t151 -91.5q82 -47 144 -89t104 -85.5t63 -91t21 -104.5q0 -49 -14 -90t-44.5 -79t-79.5 -75.5t-118 -79.5q55 -36 92.5 -68.5t60.5 -64t32.5 -63.5t9.5 -66q0 -71 -27 -123t-76.5 -87t-119 -52t-154.5 -17q-127 0 -220.5 39t-144.5 105 l97 76q32 -35 66.5 -56.5t69 -33.5t67 -16.5t61.5 -4.5q67 0 113.5 11t76 32t43 52t13.5 71q0 32 -13 59t-46.5 56.5t-92 66t-149.5 88.5q-75 42 -137 84t-106.5 86.5t-68.5 92.5t-24 104zM246 551q0 -40 21.5 -75.5t65 -72t109 -77t154.5 -90.5q62 38 104.5 69t69 60 t38 58.5t11.5 65.5q0 41 -18 75.5t-58.5 71.5t-106.5 79t-163 98q-47 -29 -88.5 -59t-72 -61.5t-48.5 -66.5t-18 -75z" />
<glyph unicode="&#xa8;" horiz-adv-x="1106" d="M281 1300q0 45 18.5 67t69.5 22q53 0 71.5 -21.5t18.5 -67.5q0 -48 -19.5 -69t-70.5 -21q-27 0 -44 6.5t-27 18.5t-13.5 28.5t-3.5 36.5zM651 1300q0 45 18.5 67t69.5 22q54 0 72 -21t18 -68q0 -48 -19.5 -69t-70.5 -21q-53 0 -70.5 25t-17.5 65z" />
<glyph unicode="&#xa9;" horiz-adv-x="1882" d="M135 610q0 115 29 219.5t81 193.5t126 161t163 123t192 78.5t214 27.5q116 0 220.5 -28.5t193.5 -81t161 -126t122.5 -162.5t78 -191.5t27.5 -213.5q0 -116 -28.5 -220.5t-81 -194.5t-125.5 -162.5t-162.5 -123.5t-192 -78.5t-213.5 -27.5q-115 0 -219.5 29t-194 81.5 t-162 126t-123.5 163t-78.5 192.5t-27.5 215zM242 610q0 -98 24.5 -188t70 -168.5t109 -143t141 -110.5t167 -71t186.5 -25t186.5 25.5t167 71.5t141 110.5t109 143t70 168.5t24.5 187q0 145 -54.5 273t-149 223.5t-221.5 151t-273 55.5q-97 0 -186.5 -25t-167 -70.5 t-141 -109.5t-109 -142t-70 -168t-24.5 -188zM584 612q0 214 92 329.5t280 115.5q61 0 110.5 -15t88 -39.5t65.5 -57t44 -66.5l-95 -58q-13 26 -31 51t-43.5 44t-60 30.5t-80.5 11.5q-70 0 -118.5 -22.5t-79 -66.5t-44.5 -108.5t-14 -148.5q0 -86 14 -150.5t44.5 -107.5 t79 -64.5t116.5 -21.5q45 0 81 11.5t64 32t49 47.5t36 59l94 -53q-18 -38 -45.5 -73t-66 -62t-90 -43.5t-118.5 -16.5q-188 0 -280 109t-92 333z" />
<glyph unicode="&#xaa;" horiz-adv-x="754" d="M92 905q0 66 21.5 109t57 69t81.5 38.5t94 17.5l178 12v31q0 76 -40 107.5t-132 31.5q-36 0 -63.5 -7.5t-48 -19.5t-35 -27.5t-23.5 -31.5l-84 51q16 26 38.5 49t53.5 40.5t71.5 27.5t92.5 10q73 0 125 -12.5t85.5 -41t49 -75t15.5 -113.5v-460h-105v88 q-25 -21 -51.5 -40.5t-55 -34t-59 -23.5t-63.5 -9q-52 0 -90.5 15.5t-63.5 44t-37 67.5t-12 86zM201 907q0 -62 25 -92.5t91 -30.5q28 0 55.5 11t53.5 28t51 36.5t47 37.5v168l-139 -12q-91 -7 -137.5 -39.5t-46.5 -106.5z" />
<glyph unicode="&#xab;" horiz-adv-x="1118" d="M76 524l381 471h145l-381 -471l381 -471h-145zM524 524l379 471h146l-379 -471l379 -471h-146z" />
<glyph unicode="&#xac;" horiz-adv-x="1427" d="M178 815v111h1069v-566h-108v455h-961z" />
<glyph unicode="&#xad;" horiz-adv-x="848" d="M113 463v127h622v-127h-622z" />
<glyph unicode="&#xae;" horiz-adv-x="1882" d="M135 610q0 115 29 219.5t81 193.5t126 161t163 123t192 78.5t214 27.5q116 0 220.5 -28.5t193.5 -81t161 -126t122.5 -162.5t78 -191.5t27.5 -213.5q0 -116 -28.5 -220.5t-81 -194.5t-125.5 -162.5t-162.5 -123.5t-192 -78.5t-213.5 -27.5q-115 0 -219.5 29t-194 81.5 t-162 126t-123.5 163t-78.5 192.5t-27.5 215zM242 610q0 -98 24.5 -188t70 -168.5t109 -143t141 -110.5t167 -71t186.5 -25t186.5 25.5t167 71.5t141 110.5t109 143t70 168.5t24.5 187q0 145 -54.5 273t-149 223.5t-221.5 151t-273 55.5q-97 0 -186.5 -25t-167 -70.5 t-141 -109.5t-109 -142t-70 -168t-24.5 -188zM668 201v850h264q74 0 130 -13t93.5 -42t56.5 -75t19 -112q0 -57 -13.5 -99t-37.5 -71.5t-58 -48t-75 -27.5l231 -362h-131l-219 350h-150v-350h-110zM778 647h156q49 0 83.5 8.5t56 27t31 49t9.5 75.5q0 81 -44 114t-142 33 h-150v-307z" />
<glyph unicode="&#xaf;" horiz-adv-x="1106" d="M262 1255v111h580v-111h-580z" />
<glyph unicode="&#xb0;" horiz-adv-x="862" d="M166 1241q0 54 21 102t57 83.5t84 56t102 20.5q56 0 104.5 -21t84.5 -56.5t56.5 -83t20.5 -101.5q0 -56 -21.5 -105t-57.5 -85t-84 -57t-101 -21q-54 0 -102.5 21t-85 57t-57.5 85t-21 105zM264 1241q0 -35 13 -66t35.5 -54t53.5 -36.5t66 -13.5t65.5 13.5t53 36t35 53 t12.5 65.5q0 34 -12.5 64.5t-35 53t-53 35.5t-65.5 13q-36 0 -67 -13.5t-53.5 -36t-35 -52.5t-12.5 -62z" />
<glyph unicode="&#xb1;" horiz-adv-x="1427" d="M178 0v111h1069v-111h-1069zM178 799v110h477v477h111v-477h481v-110h-481v-482h-111v482h-477z" />
<glyph unicode="&#xb2;" horiz-adv-x="883" d="M121 1360q17 28 42 57t62.5 52.5t88.5 38t120 14.5q66 0 122 -13.5t97.5 -42t64.5 -73.5t23 -109q0 -46 -12 -85t-30.5 -71t-41 -57t-43.5 -43q-71 -60 -151 -122.5t-180 -133.5h491v-102h-649v106q42 31 88 66.5t90.5 70.5t84 68t67.5 59q47 37 77.5 67t48 57.5 t24.5 55.5t7 62q0 66 -44 101.5t-138 35.5q-78 0 -127.5 -32.5t-83.5 -88.5z" />
<glyph unicode="&#xb3;" horiz-adv-x="883" d="M102 782l97 62q35 -47 90.5 -74t113.5 -27q106 0 156.5 43.5t50.5 124.5q0 75 -46.5 112.5t-155.5 37.5h-93v100h80q105 0 154 38t49 97q0 57 -43.5 91t-134.5 34q-72 0 -123 -25t-92 -83l-96 57q19 31 47 58.5t66.5 48.5t88.5 33t113 12q80 0 137.5 -17t94 -46t54 -68.5 t17.5 -85.5q0 -65 -38 -114.5t-114 -72.5q75 -21 119.5 -75t44.5 -136q0 -129 -87.5 -196.5t-243.5 -67.5q-43 0 -87.5 8.5t-85 25.5t-75 43.5t-58.5 61.5z" />
<glyph unicode="&#xb4;" horiz-adv-x="1106" d="M455 1208l186 361h178l-260 -361h-104z" />
<glyph unicode="&#xb5;" horiz-adv-x="1141" d="M166 -395v1444h131v-832q51 -59 117.5 -92t146.5 -33q76 0 146 42t129 120v795h131v-1049h-121l-10 123q-28 -35 -57.5 -63t-63.5 -48.5t-72.5 -31.5t-83.5 -11q-40 0 -74.5 5t-66 16.5t-61 30t-60.5 45.5v-461h-131z" />
<glyph unicode="&#xb6;" horiz-adv-x="1225" d="M68 1079q0 94 35 169.5t97 129t146.5 82.5t183.5 29h623v-107h-195v-1777h-122v1777h-211v-1777h-123v1059q-75 0 -152 23t-139.5 72.5t-102.5 128.5t-40 191z" />
<glyph unicode="&#xb7;" d="M172 745q0 50 22 71.5t74 21.5q54 0 77.5 -21.5t23.5 -71.5q0 -52 -25 -72t-76 -20q-55 0 -75.5 24.5t-20.5 67.5z" />
<glyph unicode="&#xb8;" horiz-adv-x="1106" d="M266 -348l39 80q18 -7 40.5 -13.5t47.5 -12t51 -8.5t52 -3q68 0 102.5 25t34.5 71q0 29 -14 50t-39 35.5t-59.5 22t-76.5 9.5l56 106h86l-25 -49q90 -18 133 -63.5t43 -114.5q0 -45 -18.5 -79.5t-51.5 -57t-77.5 -34t-95.5 -11.5q-32 0 -66 4.5t-65.5 11t-57 15 t-39.5 16.5z" />
<glyph unicode="&#xb9;" horiz-adv-x="883" d="M182 1249v88q61 2 106.5 15t78.5 35.5t53.5 52.5t30.5 67h92v-837h-119v649q-42 -34 -104.5 -52t-137.5 -18z" />
<glyph unicode="&#xba;" horiz-adv-x="817" d="M106 1051q0 78 16 144.5t52 115t94 75.5t142 27q82 0 139 -28t92.5 -76.5t51.5 -115t16 -142.5q0 -77 -16 -142.5t-51.5 -113.5t-92.5 -75.5t-139 -27.5q-83 0 -141 27.5t-94 75.5t-52.5 113.5t-16.5 142.5zM217 1051q0 -54 7 -102.5t27.5 -85t58 -58t98.5 -21.5 q60 0 97.5 21.5t58.5 58t28.5 85t7.5 102.5t-7.5 102.5t-28.5 86t-58.5 59.5t-97.5 22q-62 0 -99.5 -22t-57.5 -59.5t-27 -86t-7 -102.5z" />
<glyph unicode="&#xbb;" horiz-adv-x="1118" d="M70 53l379 471l-379 471h145l379 -471l-379 -471h-145zM516 53l381 471l-381 471h146l380 -471l-380 -471h-146z" />
<glyph unicode="&#xbc;" horiz-adv-x="1870" d="M171 1133v88q61 2 106.5 15t78.5 35.5t53.5 52.5t30.5 67h92v-837h-119v649q-42 -34 -104.5 -52t-137.5 -18zM457 -51l801 1487h122l-804 -1487h-119zM1028 185v96l495 549h95v-547h133v-98h-133v-190h-119v190h-471zM1165 283h334v371z" />
<glyph unicode="&#xbd;" horiz-adv-x="1870" d="M97 1133v88q61 2 106.5 15t78.5 35.5t53.5 52.5t30.5 67h92v-837h-119v649q-42 -34 -104.5 -52t-137.5 -18zM373 -51l801 1487h122l-804 -1487h-119zM1094 683q17 28 42 57t62.5 52.5t88.5 38t120 14.5q66 0 122 -13.5t97.5 -42t64.5 -73.5t23 -109q0 -46 -12 -85 t-30.5 -71t-41 -57t-43.5 -43q-71 -60 -151 -122.5t-180 -133.5h491v-102h-649v106q42 31 88 66.5t90.5 70.5t84 68t67.5 59q47 37 77.5 67t48 57.5t24.5 55.5t7 62q0 66 -44 101.5t-138 35.5q-78 0 -127.5 -32.5t-83.5 -88.5z" />
<glyph unicode="&#xbe;" horiz-adv-x="1870" d="M133 666l97 62q35 -47 90.5 -74t113.5 -27q106 0 156.5 43.5t50.5 124.5q0 75 -46.5 112.5t-155.5 37.5h-93v100h80q105 0 154 38t49 97q0 57 -43.5 91t-134.5 34q-72 0 -123 -25t-92 -83l-96 57q19 31 47 58.5t66.5 48.5t88.5 33t113 12q80 0 137.5 -17t94 -46t54 -68.5 t17.5 -85.5q0 -65 -38 -114.5t-114 -72.5q75 -21 119.5 -75t44.5 -136q0 -129 -87.5 -196.5t-243.5 -67.5q-43 0 -87.5 8.5t-85 25.5t-75 43.5t-58.5 61.5zM561 -51l801 1487h122l-804 -1487h-119zM1088 183v96l495 549h95v-547h133v-98h-133v-190h-119v190h-471zM1225 281 h334v371z" />
<glyph unicode="&#xbf;" horiz-adv-x="1036" d="M127 -27q0 89 29 160t83 132t130.5 115t171.5 109v218h131v-275q-115 -65 -192.5 -118.5t-124 -105t-66 -105.5t-19.5 -121q0 -121 74 -188.5t217 -67.5q58 0 103.5 11.5t80 30.5t58.5 44t39 51l108 -72q-21 -38 -56.5 -72t-84 -59.5t-110 -40t-136.5 -14.5 q-93 0 -173 22t-138.5 67.5t-91.5 114.5t-33 164zM504 983q0 53 25 72.5t77 19.5q58 0 79.5 -24.5t21.5 -67.5q0 -49 -23.5 -70.5t-77.5 -21.5q-57 0 -79.5 21.5t-22.5 70.5z" />
<glyph unicode="&#xc0;" horiz-adv-x="1264" d="M63 0l480 1384h174l483 -1384h-147l-135 399h-578l-135 -399h-142zM371 1905h176l186 -361h-104zM381 522h493l-247 731z" />
<glyph unicode="&#xc1;" horiz-adv-x="1264" d="M63 0l480 1384h174l483 -1384h-147l-135 399h-578l-135 -399h-142zM381 522h493l-247 731zM535 1544l186 361h178l-260 -361h-104z" />
<glyph unicode="&#xc2;" horiz-adv-x="1264" d="M63 0l480 1384h174l483 -1384h-147l-135 399h-578l-135 -399h-142zM314 1544l229 361h168l229 -361h-110l-203 265l-203 -265h-110zM381 522h493l-247 731z" />
<glyph unicode="&#xc3;" horiz-adv-x="1264" d="M63 0l480 1384h174l483 -1384h-147l-135 399h-578l-135 -399h-142zM266 1550q5 118 60 177t149 59q37 0 68 -10.5t57 -26.5t49 -34.5t45 -34.5t44.5 -26.5t48.5 -10.5q51 0 77 32t31 101h94q-3 -115 -58.5 -174.5t-149.5 -59.5q-43 0 -74.5 11t-56.5 27t-45.5 35 t-41.5 35t-44.5 27t-53.5 11q-51 0 -75 -34t-29 -104h-95zM381 522h493l-247 731z" />
<glyph unicode="&#xc4;" horiz-adv-x="1264" d="M63 0l480 1384h174l483 -1384h-147l-135 399h-578l-135 -399h-142zM357 1636q0 45 18.5 67t69.5 22q53 0 71.5 -21.5t18.5 -67.5q0 -48 -19.5 -69t-70.5 -21q-27 0 -44 6.5t-27 18.5t-13.5 28.5t-3.5 36.5zM381 522h493l-247 731zM727 1636q0 45 18.5 67t69.5 22 q54 0 72 -21t18 -68q0 -48 -19.5 -69t-70.5 -21q-53 0 -70.5 25t-17.5 65z" />
<glyph unicode="&#xc5;" horiz-adv-x="1264" d="M63 0l480 1384h174l483 -1384h-147l-135 399h-578l-135 -399h-142zM381 522h493l-247 731zM449 1677q0 39 10.5 72.5t32.5 57.5t56 37.5t81 13.5q94 0 138 -49.5t44 -131.5q0 -40 -11 -73t-33.5 -57t-56.5 -37t-81 -13q-49 0 -83.5 14t-56 38.5t-31 57t-9.5 70.5z M529 1677q0 -46 22 -75t78 -29q54 0 77 27.5t23 76.5q0 103 -100 103q-48 0 -74 -26.5t-26 -76.5z" />
<glyph unicode="&#xc6;" horiz-adv-x="1714" d="M57 0l521 1384h999v-122h-623v-467h555v-123h-555v-549h623v-123h-758v393h-477l-145 -393h-140zM387 516h432v746h-157z" />
<glyph unicode="&#xc7;" horiz-adv-x="1315" d="M145 692q0 176 34 310.5t105 226t180.5 138t260.5 46.5q97 0 173 -19t133.5 -54t100 -84t74.5 -109l-116 -74q-26 48 -58 87.5t-75.5 68.5t-100 45t-131.5 16q-118 0 -201 -39.5t-135 -116t-76 -187.5t-24 -255t24 -255t77 -187.5t137 -116t204 -39.5q84 0 145.5 20 t105.5 52t74.5 71.5t53.5 79.5l115 -71q-32 -58 -73 -107t-96.5 -86t-129.5 -58.5t-172 -23.5v-2q89 -18 132.5 -63.5t43.5 -114.5q0 -45 -19 -79.5t-52 -57t-77.5 -34t-95.5 -11.5q-32 0 -65.5 4.5t-64.5 11t-56.5 15t-40.5 16.5l39 80q37 -14 88 -25.5t102 -11.5 q69 0 103 25t34 71q0 29 -13.5 50t-38.5 35.5t-59 22t-75 9.5l31 61q-271 19 -398 199.5t-127 519.5z" />
<glyph unicode="&#xc8;" horiz-adv-x="1155" d="M199 0v1384h819v-122h-684v-467h588v-123h-588v-549h684v-123h-819zM357 1905h176l186 -361h-104z" />
<glyph unicode="&#xc9;" horiz-adv-x="1155" d="M199 0v1384h819v-122h-684v-467h588v-123h-588v-549h684v-123h-819zM498 1544l186 361h178l-260 -361h-104z" />
<glyph unicode="&#xca;" horiz-adv-x="1155" d="M199 0v1384h819v-122h-684v-467h588v-123h-588v-549h684v-123h-819zM291 1544l229 361h168l229 -361h-110l-203 265l-203 -265h-110z" />
<glyph unicode="&#xcb;" horiz-adv-x="1155" d="M199 0v1384h819v-122h-684v-467h588v-123h-588v-549h684v-123h-819zM330 1636q0 45 18.5 67t69.5 22q53 0 71.5 -21.5t18.5 -67.5q0 -48 -19.5 -69t-70.5 -21q-27 0 -44 6.5t-27 18.5t-13.5 28.5t-3.5 36.5zM700 1636q0 45 18.5 67t69.5 22q54 0 72 -21t18 -68 q0 -48 -19.5 -69t-70.5 -21q-53 0 -70.5 25t-17.5 65z" />
<glyph unicode="&#xcc;" horiz-adv-x="719" d="M91 1905h176l186 -361h-104zM102 0v119h189v1147h-189v118h514v-118h-190v-1147h190v-119h-514z" />
<glyph unicode="&#xcd;" horiz-adv-x="719" d="M102 0v119h189v1147h-189v118h514v-118h-190v-1147h190v-119h-514zM280 1544l186 361h178l-260 -361h-104z" />
<glyph unicode="&#xce;" horiz-adv-x="719" d="M48 1544l229 361h168l229 -361h-110l-203 265l-203 -265h-110zM102 0v119h189v1147h-189v118h514v-118h-190v-1147h190v-119h-514z" />
<glyph unicode="&#xcf;" horiz-adv-x="719" d="M92 1636q0 45 18.5 67t69.5 22q53 0 71.5 -21.5t18.5 -67.5q0 -48 -19.5 -69t-70.5 -21q-27 0 -44 6.5t-27 18.5t-13.5 28.5t-3.5 36.5zM102 0v119h189v1147h-189v118h514v-118h-190v-1147h190v-119h-514zM462 1636q0 45 18.5 67t69.5 22q54 0 72 -21t18 -68 q0 -48 -19.5 -69t-70.5 -21q-53 0 -70.5 25t-17.5 65z" />
<glyph unicode="&#xd0;" horiz-adv-x="1325" d="M63 641v109h130v634h331q169 0 293.5 -35t206 -116t121 -213.5t39.5 -327.5q0 -203 -43 -336.5t-127 -212.5t-207 -111t-283 -32h-331v641h-130zM328 123h184q142 0 242.5 28.5t164 95.5t92.5 176.5t29 270.5q0 157 -28 265.5t-91 176t-163.5 97t-245.5 29.5h-184v-512 h338v-109h-338v-518z" />
<glyph unicode="&#xd1;" horiz-adv-x="1374" d="M199 0v1384h196l647 -1165v1165h134v-1384h-160l-686 1235v-1235h-131zM315 1570q5 118 60 177t149 59q37 0 68 -10.5t57 -26.5t49 -34.5t45 -34.5t44.5 -26.5t48.5 -10.5q51 0 77 32t31 101h94q-3 -115 -58.5 -174.5t-149.5 -59.5q-43 0 -74.5 11t-56.5 27t-45.5 35 t-41.5 35t-44.5 27t-53.5 11q-51 0 -75 -34t-29 -104h-95z" />
<glyph unicode="&#xd2;" horiz-adv-x="1364" d="M135 692q0 166 29.5 299.5t94.5 227t169 144t254 50.5t254.5 -50t169.5 -143t94 -226.5t29 -301.5q0 -167 -29 -300.5t-94 -227t-169.5 -143.5t-254.5 -50t-254 50t-169 144t-94.5 227t-29.5 300zM279 692q0 -144 21 -255t68.5 -187.5t124.5 -116t189 -39.5 q111 0 188 39.5t124 115.5t68 187.5t21 255.5t-21 255.5t-68 187.5t-124 115.5t-188 39.5q-112 0 -189 -39t-124.5 -115t-68.5 -187.5t-21 -256.5zM461 1905h176l186 -361h-104z" />
<glyph unicode="&#xd3;" horiz-adv-x="1364" d="M135 692q0 166 29.5 299.5t94.5 227t169 144t254 50.5t254.5 -50t169.5 -143t94 -226.5t29 -301.5q0 -167 -29 -300.5t-94 -227t-169.5 -143.5t-254.5 -50t-254 50t-169 144t-94.5 227t-29.5 300zM279 692q0 -144 21 -255t68.5 -187.5t124.5 -116t189 -39.5 q111 0 188 39.5t124 115.5t68 187.5t21 255.5t-21 255.5t-68 187.5t-124 115.5t-188 39.5q-112 0 -189 -39t-124.5 -115t-68.5 -187.5t-21 -256.5zM586 1544l186 361h178l-260 -361h-104z" />
<glyph unicode="&#xd4;" horiz-adv-x="1364" d="M135 692q0 166 29.5 299.5t94.5 227t169 144t254 50.5t254.5 -50t169.5 -143t94 -226.5t29 -301.5q0 -167 -29 -300.5t-94 -227t-169.5 -143.5t-254.5 -50t-254 50t-169 144t-94.5 227t-29.5 300zM279 692q0 -144 21 -255t68.5 -187.5t124.5 -116t189 -39.5 q111 0 188 39.5t124 115.5t68 187.5t21 255.5t-21 255.5t-68 187.5t-124 115.5t-188 39.5q-112 0 -189 -39t-124.5 -115t-68.5 -187.5t-21 -256.5zM369 1544l229 361h168l229 -361h-110l-203 265l-203 -265h-110z" />
<glyph unicode="&#xd5;" horiz-adv-x="1364" d="M135 692q0 166 29.5 299.5t94.5 227t169 144t254 50.5t254.5 -50t169.5 -143t94 -226.5t29 -301.5q0 -167 -29 -300.5t-94 -227t-169.5 -143.5t-254.5 -50t-254 50t-169 144t-94.5 227t-29.5 300zM279 692q0 -144 21 -255t68.5 -187.5t124.5 -116t189 -39.5 q111 0 188 39.5t124 115.5t68 187.5t21 255.5t-21 255.5t-68 187.5t-124 115.5t-188 39.5q-112 0 -189 -39t-124.5 -115t-68.5 -187.5t-21 -256.5zM321 1550q5 118 60 177t149 59q37 0 68 -10.5t57 -26.5t49 -34.5t45 -34.5t44.5 -26.5t48.5 -10.5q51 0 77 32t31 101h94 q-3 -115 -58.5 -174.5t-149.5 -59.5q-43 0 -74.5 11t-56.5 27t-45.5 35t-41.5 35t-44.5 27t-53.5 11q-51 0 -75 -34t-29 -104h-95z" />
<glyph unicode="&#xd6;" horiz-adv-x="1364" d="M135 692q0 166 29.5 299.5t94.5 227t169 144t254 50.5t254.5 -50t169.5 -143t94 -226.5t29 -301.5q0 -167 -29 -300.5t-94 -227t-169.5 -143.5t-254.5 -50t-254 50t-169 144t-94.5 227t-29.5 300zM279 692q0 -144 21 -255t68.5 -187.5t124.5 -116t189 -39.5 q111 0 188 39.5t124 115.5t68 187.5t21 255.5t-21 255.5t-68 187.5t-124 115.5t-188 39.5q-112 0 -189 -39t-124.5 -115t-68.5 -187.5t-21 -256.5zM412 1636q0 45 18.5 67t69.5 22q53 0 71.5 -21.5t18.5 -67.5q0 -48 -19.5 -69t-70.5 -21q-27 0 -44 6.5t-27 18.5t-13.5 28.5 t-3.5 36.5zM782 1636q0 45 18.5 67t69.5 22q54 0 72 -21t18 -68q0 -48 -19.5 -69t-70.5 -21q-53 0 -70.5 25t-17.5 65z" />
<glyph unicode="&#xd7;" horiz-adv-x="1427" d="M242 197l391 391l-391 393l80 78l389 -393l391 393l78 -78l-392 -393l392 -391l-78 -78l-391 391l-389 -391z" />
<glyph unicode="&#xd8;" horiz-adv-x="1364" d="M63 -115l195 281q-66 93 -94.5 225.5t-28.5 300.5q0 166 29.5 299.5t94.5 227t169 144t254 50.5q118 0 206.5 -31t151.5 -90l140 197h116l-190 -272q65 -94 94 -226t29 -299t-29 -300.5t-94 -227t-169.5 -143.5t-254.5 -50q-118 0 -206.5 30.5t-151.5 90.5l-144 -207 h-117zM279 692q0 -127 16 -226.5t51 -174.5l617 887q-48 55 -117.5 83.5t-163.5 28.5q-112 0 -189 -39t-124.5 -115t-68.5 -187.5t-21 -256.5zM401 205q51 -56 118 -83.5t163 -27.5q111 0 188 39.5t124 115.5t68 187.5t21 255.5q0 124 -16 222.5t-51 172.5z" />
<glyph unicode="&#xd9;" horiz-adv-x="1378" d="M193 578v806h135v-786q0 -144 17 -241t59 -156.5t111.5 -85t174.5 -25.5q106 0 175.5 25.5t110 85t57 156t16.5 237.5v790h135v-806q0 -170 -26 -286.5t-84.5 -188t-152.5 -103t-229 -31.5q-141 0 -237 32.5t-154 105t-83 188.5t-25 283zM445 1905h176l186 -361h-104z " />
<glyph unicode="&#xda;" horiz-adv-x="1378" d="M193 578v806h135v-786q0 -144 17 -241t59 -156.5t111.5 -85t174.5 -25.5q106 0 175.5 25.5t110 85t57 156t16.5 237.5v790h135v-806q0 -170 -26 -286.5t-84.5 -188t-152.5 -103t-229 -31.5q-141 0 -237 32.5t-154 105t-83 188.5t-25 283zM607 1544l186 361h178l-260 -361 h-104z" />
<glyph unicode="&#xdb;" horiz-adv-x="1378" d="M193 578v806h135v-786q0 -144 17 -241t59 -156.5t111.5 -85t174.5 -25.5q106 0 175.5 25.5t110 85t57 156t16.5 237.5v790h135v-806q0 -170 -26 -286.5t-84.5 -188t-152.5 -103t-229 -31.5q-141 0 -237 32.5t-154 105t-83 188.5t-25 283zM379 1544l229 361h168l229 -361 h-110l-203 265l-203 -265h-110z" />
<glyph unicode="&#xdc;" horiz-adv-x="1378" d="M193 578v806h135v-786q0 -144 17 -241t59 -156.5t111.5 -85t174.5 -25.5q106 0 175.5 25.5t110 85t57 156t16.5 237.5v790h135v-806q0 -170 -26 -286.5t-84.5 -188t-152.5 -103t-229 -31.5q-141 0 -237 32.5t-154 105t-83 188.5t-25 283zM420 1636q0 45 18.5 67t69.5 22 q53 0 71.5 -21.5t18.5 -67.5q0 -48 -19.5 -69t-70.5 -21q-27 0 -44 6.5t-27 18.5t-13.5 28.5t-3.5 36.5zM790 1636q0 45 18.5 67t69.5 22q54 0 72 -21t18 -68q0 -48 -19.5 -69t-70.5 -21q-53 0 -70.5 25t-17.5 65z" />
<glyph unicode="&#xdd;" horiz-adv-x="1126" d="M51 1384h150l362 -720l367 720h145l-444 -847v-537h-137v530zM480 1544l186 361h178l-260 -361h-104z" />
<glyph unicode="&#xde;" horiz-adv-x="1153" d="M199 0v1384h135v-223h248q238 0 350 -107.5t112 -322.5q0 -127 -29 -215.5t-88.5 -144t-149.5 -80.5t-212 -25h-231v-266h-135zM334 389h209q93 0 160 15t110 53t63.5 103t20.5 165q0 91 -22 151t-64 96t-103 51t-139 15h-235v-649z" />
<glyph unicode="&#xdf;" horiz-adv-x="1149" d="M182 0v1040q0 103 14.5 191t56 152t115 100.5t191.5 36.5q81 0 147 -18.5t112.5 -58t71.5 -100.5t25 -145t-20 -143.5t-56 -99.5t-85.5 -60.5t-108.5 -26.5q186 -15 280.5 -121.5t94.5 -295.5q0 -102 -20.5 -190.5t-67 -153t-122 -101.5t-185.5 -37q-50 0 -102.5 9.5 t-100.5 23.5v123q46 -20 100.5 -31.5t98.5 -11.5q73 0 123 26t81.5 74.5t45.5 118.5t14 158q0 96 -27 161t-82 105t-137 57t-193 17v114q85 0 149 14t106.5 46t63.5 84.5t21 130.5q0 111 -55 165t-176 54q-71 0 -118 -22t-75 -66.5t-39.5 -112t-11.5 -157.5v-1049h-129z" />
<glyph unicode="&#xe0;" horiz-adv-x="1079" d="M121 295q0 82 24 143t75 103.5t130.5 67.5t190.5 36l235 23v53q0 66 -15 112.5t-47.5 76.5t-83 43.5t-120.5 13.5q-59 0 -102.5 -10.5t-75 -28t-52.5 -40.5t-36 -48l-103 63q22 36 52.5 68t75 56t104 38t139.5 14q106 0 180.5 -20t122 -63.5t69 -113t21.5 -169.5v-713 h-129v152q-45 -39 -87 -72.5t-85.5 -58t-90 -38.5t-99.5 -14q-74 0 -129 22.5t-91.5 65t-54.5 103t-18 135.5zM254 299q0 -114 46 -165.5t144 -51.5q37 0 72.5 11t74.5 33.5t84 58t101 83.5v293l-188 -18q-90 -9 -153.5 -25.5t-103.5 -45t-58.5 -71t-18.5 -102.5zM288 1569 h176l186 -361h-104z" />
<glyph unicode="&#xe1;" horiz-adv-x="1079" d="M121 295q0 82 24 143t75 103.5t130.5 67.5t190.5 36l235 23v53q0 66 -15 112.5t-47.5 76.5t-83 43.5t-120.5 13.5q-59 0 -102.5 -10.5t-75 -28t-52.5 -40.5t-36 -48l-103 63q22 36 52.5 68t75 56t104 38t139.5 14q106 0 180.5 -20t122 -63.5t69 -113t21.5 -169.5v-713 h-129v152q-45 -39 -87 -72.5t-85.5 -58t-90 -38.5t-99.5 -14q-74 0 -129 22.5t-91.5 65t-54.5 103t-18 135.5zM254 299q0 -114 46 -165.5t144 -51.5q37 0 72.5 11t74.5 33.5t84 58t101 83.5v293l-188 -18q-90 -9 -153.5 -25.5t-103.5 -45t-58.5 -71t-18.5 -102.5zM419 1208 l186 361h178l-260 -361h-104z" />
<glyph unicode="&#xe2;" horiz-adv-x="1079" d="M121 295q0 82 24 143t75 103.5t130.5 67.5t190.5 36l235 23v53q0 66 -15 112.5t-47.5 76.5t-83 43.5t-120.5 13.5q-59 0 -102.5 -10.5t-75 -28t-52.5 -40.5t-36 -48l-103 63q22 36 52.5 68t75 56t104 38t139.5 14q106 0 180.5 -20t122 -63.5t69 -113t21.5 -169.5v-713 h-129v152q-45 -39 -87 -72.5t-85.5 -58t-90 -38.5t-99.5 -14q-74 0 -129 22.5t-91.5 65t-54.5 103t-18 135.5zM204 1208l229 361h168l229 -361h-110l-203 265l-203 -265h-110zM254 299q0 -114 46 -165.5t144 -51.5q37 0 72.5 11t74.5 33.5t84 58t101 83.5v293l-188 -18 q-90 -9 -153.5 -25.5t-103.5 -45t-58.5 -71t-18.5 -102.5z" />
<glyph unicode="&#xe3;" horiz-adv-x="1079" d="M121 295q0 82 24 143t75 103.5t130.5 67.5t190.5 36l235 23v53q0 66 -15 112.5t-47.5 76.5t-83 43.5t-120.5 13.5q-59 0 -102.5 -10.5t-75 -28t-52.5 -40.5t-36 -48l-103 63q22 36 52.5 68t75 56t104 38t139.5 14q106 0 180.5 -20t122 -63.5t69 -113t21.5 -169.5v-713 h-129v152q-45 -39 -87 -72.5t-85.5 -58t-90 -38.5t-99.5 -14q-74 0 -129 22.5t-91.5 65t-54.5 103t-18 135.5zM162 1214q5 118 60 177t149 59q37 0 68 -10.5t57 -26.5t49 -34.5t45 -34.5t44.5 -26.5t48.5 -10.5q51 0 77 32t31 101h94q-3 -115 -58.5 -174.5t-149.5 -59.5 q-43 0 -74.5 11t-56.5 27t-45.5 35t-41.5 35t-44.5 27t-53.5 11q-51 0 -75 -34t-29 -104h-95zM254 299q0 -114 46 -165.5t144 -51.5q37 0 72.5 11t74.5 33.5t84 58t101 83.5v293l-188 -18q-90 -9 -153.5 -25.5t-103.5 -45t-58.5 -71t-18.5 -102.5z" />
<glyph unicode="&#xe4;" horiz-adv-x="1079" d="M121 295q0 82 24 143t75 103.5t130.5 67.5t190.5 36l235 23v53q0 66 -15 112.5t-47.5 76.5t-83 43.5t-120.5 13.5q-59 0 -102.5 -10.5t-75 -28t-52.5 -40.5t-36 -48l-103 63q22 36 52.5 68t75 56t104 38t139.5 14q106 0 180.5 -20t122 -63.5t69 -113t21.5 -169.5v-713 h-129v152q-45 -39 -87 -72.5t-85.5 -58t-90 -38.5t-99.5 -14q-74 0 -129 22.5t-91.5 65t-54.5 103t-18 135.5zM241 1300q0 45 18.5 67t69.5 22q53 0 71.5 -21.5t18.5 -67.5q0 -48 -19.5 -69t-70.5 -21q-27 0 -44 6.5t-27 18.5t-13.5 28.5t-3.5 36.5zM254 299 q0 -114 46 -165.5t144 -51.5q37 0 72.5 11t74.5 33.5t84 58t101 83.5v293l-188 -18q-90 -9 -153.5 -25.5t-103.5 -45t-58.5 -71t-18.5 -102.5zM611 1300q0 45 18.5 67t69.5 22q54 0 72 -21t18 -68q0 -48 -19.5 -69t-70.5 -21q-53 0 -70.5 25t-17.5 65z" />
<glyph unicode="&#xe5;" horiz-adv-x="1079" d="M121 295q0 82 24 143t75 103.5t130.5 67.5t190.5 36l235 23v53q0 66 -15 112.5t-47.5 76.5t-83 43.5t-120.5 13.5q-59 0 -102.5 -10.5t-75 -28t-52.5 -40.5t-36 -48l-103 63q22 36 52.5 68t75 56t104 38t139.5 14q106 0 180.5 -20t122 -63.5t69 -113t21.5 -169.5v-713 h-129v152q-45 -39 -87 -72.5t-85.5 -58t-90 -38.5t-99.5 -14q-74 0 -129 22.5t-91.5 65t-54.5 103t-18 135.5zM254 299q0 -114 46 -165.5t144 -51.5q37 0 72.5 11t74.5 33.5t84 58t101 83.5v293l-188 -18q-90 -9 -153.5 -25.5t-103.5 -45t-58.5 -71t-18.5 -102.5zM329 1339 q0 39 10.5 72.5t32.5 57.5t56 37.5t81 13.5q94 0 138 -49.5t44 -131.5q0 -40 -11 -73t-33.5 -57t-56.5 -37t-81 -13q-49 0 -83.5 14t-56 38.5t-31 57t-9.5 70.5zM409 1339q0 -46 22 -75t78 -29q54 0 77 27.5t23 76.5q0 103 -100 103q-48 0 -74 -26.5t-26 -76.5z" />
<glyph unicode="&#xe6;" horiz-adv-x="1694" d="M121 299q0 84 25.5 144t77.5 101t130.5 64.5t184.5 32.5l237 21v59q0 69 -18 116t-53 76t-86 41.5t-117 12.5q-101 0 -163.5 -36.5t-94.5 -92.5l-103 63q25 40 56.5 73t75 56t102 36t137.5 13q63 0 118 -9.5t100 -30.5t79 -54.5t55 -81.5q47 81 130 128.5t198 47.5 q108 0 182.5 -32.5t120.5 -93t66 -148t20 -197.5v-84h-676q0 -95 12.5 -176t46 -140.5t91.5 -93.5t149 -34q45 0 81 9.5t66 28t56 45.5t51 62l103 -67q-28 -45 -60.5 -80t-74.5 -59t-96 -37t-124 -13q-127 0 -220 48.5t-142 142.5q-45 -37 -96 -71.5t-106.5 -61t-115 -42.5 t-123.5 -16q-68 0 -120.5 24t-88.5 67.5t-54.5 104.5t-18.5 134zM254 295q0 -109 49.5 -161t134.5 -52q48 0 94 13.5t91 37t90.5 55t91.5 68.5q-16 48 -22.5 125.5t-6.5 173.5l-188 -16q-86 -7 -149 -21.5t-104 -42.5t-61 -71.5t-20 -108.5zM907 629h547q-3 175 -65.5 258.5 t-198.5 83.5q-62 0 -112 -20.5t-87 -62.5t-58.5 -106.5t-25.5 -152.5z" />
<glyph unicode="&#xe7;" horiz-adv-x="1016" d="M129 520q0 128 24.5 231.5t77 176t135 112t199.5 39.5q124 0 207.5 -49t140.5 -151l-106 -64q-21 37 -44.5 65t-53 47.5t-66.5 29.5t-84 10q-155 0 -226 -114t-71 -337q0 -98 15.5 -178t51 -137.5t94 -89t144.5 -31.5q49 0 86.5 10.5t67.5 30.5t54 48.5t46 63.5l105 -65 q-48 -89 -128 -142t-206 -57l-2 -4q90 -17 133 -61t43 -113q0 -45 -19 -79.5t-52 -58t-77.5 -35t-95.5 -11.5q-32 0 -65.5 4.5t-64.5 11.5t-56.5 15.5t-40.5 17.5l39 78q37 -14 88 -25.5t102 -11.5q69 0 103.5 26t34.5 72q0 28 -14 49t-38.5 34.5t-59 20.5t-75.5 9l31 65 q-105 10 -177.5 55t-116.5 117t-63.5 168t-19.5 207z" />
<glyph unicode="&#xe8;" horiz-adv-x="1051" d="M129 516q0 133 23 237.5t73.5 177t131 110.5t196.5 38q102 0 175 -32t119.5 -92.5t68.5 -148t22 -198.5v-84h-676q0 -115 14.5 -199t49 -138.5t91.5 -80.5t142 -26q42 0 77 7.5t65.5 25t58.5 45t55 67.5l103 -67q-28 -45 -61.5 -80t-77 -59t-99 -37t-127.5 -13 q-104 0 -183 30t-132.5 95.5t-81 169.5t-27.5 252zM264 629h547q-3 177 -66 259.5t-196 82.5q-69 0 -119.5 -20t-85 -62t-54 -106.5t-26.5 -153.5zM292 1569h176l186 -361h-104z" />
<glyph unicode="&#xe9;" horiz-adv-x="1051" d="M129 516q0 133 23 237.5t73.5 177t131 110.5t196.5 38q102 0 175 -32t119.5 -92.5t68.5 -148t22 -198.5v-84h-676q0 -115 14.5 -199t49 -138.5t91.5 -80.5t142 -26q42 0 77 7.5t65.5 25t58.5 45t55 67.5l103 -67q-28 -45 -61.5 -80t-77 -59t-99 -37t-127.5 -13 q-104 0 -183 30t-132.5 95.5t-81 169.5t-27.5 252zM264 629h547q-3 177 -66 259.5t-196 82.5q-69 0 -119.5 -20t-85 -62t-54 -106.5t-26.5 -153.5zM454 1208l186 361h178l-260 -361h-104z" />
<glyph unicode="&#xea;" horiz-adv-x="1051" d="M129 516q0 133 23 237.5t73.5 177t131 110.5t196.5 38q102 0 175 -32t119.5 -92.5t68.5 -148t22 -198.5v-84h-676q0 -115 14.5 -199t49 -138.5t91.5 -80.5t142 -26q42 0 77 7.5t65.5 25t58.5 45t55 67.5l103 -67q-28 -45 -61.5 -80t-77 -59t-99 -37t-127.5 -13 q-104 0 -183 30t-132.5 95.5t-81 169.5t-27.5 252zM231 1208l229 361h168l229 -361h-110l-203 265l-203 -265h-110zM264 629h547q-3 177 -66 259.5t-196 82.5q-69 0 -119.5 -20t-85 -62t-54 -106.5t-26.5 -153.5z" />
<glyph unicode="&#xeb;" horiz-adv-x="1051" d="M129 516q0 133 23 237.5t73.5 177t131 110.5t196.5 38q102 0 175 -32t119.5 -92.5t68.5 -148t22 -198.5v-84h-676q0 -115 14.5 -199t49 -138.5t91.5 -80.5t142 -26q42 0 77 7.5t65.5 25t58.5 45t55 67.5l103 -67q-28 -45 -61.5 -80t-77 -59t-99 -37t-127.5 -13 q-104 0 -183 30t-132.5 95.5t-81 169.5t-27.5 252zM264 629h547q-3 177 -66 259.5t-196 82.5q-69 0 -119.5 -20t-85 -62t-54 -106.5t-26.5 -153.5zM272 1300q0 45 18.5 67t69.5 22q53 0 71.5 -21.5t18.5 -67.5q0 -48 -19.5 -69t-70.5 -21q-27 0 -44 6.5t-27 18.5t-13.5 28.5 t-3.5 36.5zM642 1300q0 45 18.5 67t69.5 22q54 0 72 -21t18 -68q0 -48 -19.5 -69t-70.5 -21q-53 0 -70.5 25t-17.5 65z" />
<glyph unicode="&#xec;" horiz-adv-x="494" d="M-23 1569h176l186 -361h-104zM182 0v1049h129v-1049h-129z" />
<glyph unicode="&#xed;" horiz-adv-x="494" d="M157 1208l186 361h178l-260 -361h-104zM182 0v1049h129v-1049h-129z" />
<glyph unicode="&#xee;" horiz-adv-x="494" d="M-66 1208l229 361h168l229 -361h-110l-203 265l-203 -265h-110zM182 0v1049h129v-1049h-129z" />
<glyph unicode="&#xef;" horiz-adv-x="494" d="M-35 1300q0 45 18.5 67t69.5 22q53 0 71.5 -21.5t18.5 -67.5q0 -48 -19.5 -69t-70.5 -21q-27 0 -44 6.5t-27 18.5t-13.5 28.5t-3.5 36.5zM182 0v1049h129v-1049h-129zM335 1300q0 45 18.5 67t69.5 22q54 0 72 -21t18 -68q0 -48 -19.5 -69t-70.5 -21q-53 0 -70.5 25 t-17.5 65z" />
<glyph unicode="&#xf0;" horiz-adv-x="1141" d="M129 508q0 137 30 239t85.5 169t133.5 100t173 33q62 0 128.5 -21t123.5 -72q-28 85 -86.5 176.5t-143.5 172.5l-200 -131l-49 71l188 123q-50 50 -103.5 88t-97.5 64h144q15 -8 34 -19.5t38.5 -24.5t38 -27t32.5 -26l145 93l52 -70l-127 -84q81 -77 144.5 -169 t108 -198.5t68 -228.5t23.5 -258q0 -128 -26.5 -228t-80.5 -169t-137 -105.5t-197 -36.5q-117 0 -200.5 37.5t-137 107.5t-79 169.5t-25.5 224.5zM262 508q0 -89 13.5 -167t48.5 -136t94.5 -91.5t152.5 -33.5q91 0 150 33t93.5 91t48.5 136t14 168q0 94 -14 173t-49 135.5 t-94.5 88t-150.5 31.5q-87 0 -145.5 -29.5t-94.5 -85t-51.5 -134.5t-15.5 -179z" />
<glyph unicode="&#xf1;" horiz-adv-x="1137" d="M182 0v1049h129v-166q45 43 90.5 79t92 62t93.5 40.5t95 14.5q84 0 138 -25t86 -73.5t44.5 -119t12.5 -161.5v-700h-129v651q0 88 -8 147t-28 94t-54.5 49.5t-86.5 14.5q-69 0 -160 -51.5t-186 -142.5v-762h-129zM213 1214q5 118 60 177t149 59q37 0 68 -10.5t57 -26.5 t49 -34.5t45 -34.5t44.5 -26.5t48.5 -10.5q51 0 77 32t31 101h94q-3 -115 -58.5 -174.5t-149.5 -59.5q-43 0 -74.5 11t-56.5 27t-45.5 35t-41.5 35t-44.5 27t-53.5 11q-51 0 -75 -34t-29 -104h-95z" />
<glyph unicode="&#xf2;" horiz-adv-x="1141" d="M129 522q0 122 24 224.5t77 176.5t137 115t204 41q117 0 200.5 -39.5t137 -112.5t78.5 -175.5t25 -229.5q0 -125 -24 -226.5t-77 -174.5t-137 -112.5t-203 -39.5t-203 39.5t-137 112.5t-77.5 174.5t-24.5 226.5zM262 522q0 -104 16.5 -186t53 -139t95.5 -87t144 -30 q83 0 141.5 29.5t95 86.5t53 139t16.5 187q0 106 -16 189t-52 140t-94.5 86.5t-143.5 29.5q-86 0 -145 -30.5t-95.5 -88t-52.5 -140t-16 -186.5zM304 1569h176l186 -361h-104z" />
<glyph unicode="&#xf3;" horiz-adv-x="1141" d="M129 522q0 122 24 224.5t77 176.5t137 115t204 41q117 0 200.5 -39.5t137 -112.5t78.5 -175.5t25 -229.5q0 -125 -24 -226.5t-77 -174.5t-137 -112.5t-203 -39.5t-203 39.5t-137 112.5t-77.5 174.5t-24.5 226.5zM262 522q0 -104 16.5 -186t53 -139t95.5 -87t144 -30 q83 0 141.5 29.5t95 86.5t53 139t16.5 187q0 106 -16 189t-52 140t-94.5 86.5t-143.5 29.5q-86 0 -145 -30.5t-95.5 -88t-52.5 -140t-16 -186.5zM461 1208l186 361h178l-260 -361h-104z" />
<glyph unicode="&#xf4;" horiz-adv-x="1141" d="M129 522q0 122 24 224.5t77 176.5t137 115t204 41q117 0 200.5 -39.5t137 -112.5t78.5 -175.5t25 -229.5q0 -125 -24 -226.5t-77 -174.5t-137 -112.5t-203 -39.5t-203 39.5t-137 112.5t-77.5 174.5t-24.5 226.5zM258 1208l229 361h168l229 -361h-110l-203 265l-203 -265 h-110zM262 522q0 -104 16.5 -186t53 -139t95.5 -87t144 -30q83 0 141.5 29.5t95 86.5t53 139t16.5 187q0 106 -16 189t-52 140t-94.5 86.5t-143.5 29.5q-86 0 -145 -30.5t-95.5 -88t-52.5 -140t-16 -186.5z" />
<glyph unicode="&#xf5;" horiz-adv-x="1141" d="M129 522q0 122 24 224.5t77 176.5t137 115t204 41q117 0 200.5 -39.5t137 -112.5t78.5 -175.5t25 -229.5q0 -125 -24 -226.5t-77 -174.5t-137 -112.5t-203 -39.5t-203 39.5t-137 112.5t-77.5 174.5t-24.5 226.5zM208 1214q5 118 60 177t149 59q37 0 68 -10.5t57 -26.5 t49 -34.5t45 -34.5t44.5 -26.5t48.5 -10.5q51 0 77 32t31 101h94q-3 -115 -58.5 -174.5t-149.5 -59.5q-43 0 -74.5 11t-56.5 27t-45.5 35t-41.5 35t-44.5 27t-53.5 11q-51 0 -75 -34t-29 -104h-95zM262 522q0 -104 16.5 -186t53 -139t95.5 -87t144 -30q83 0 141.5 29.5 t95 86.5t53 139t16.5 187q0 106 -16 189t-52 140t-94.5 86.5t-143.5 29.5q-86 0 -145 -30.5t-95.5 -88t-52.5 -140t-16 -186.5z" />
<glyph unicode="&#xf6;" horiz-adv-x="1141" d="M129 522q0 122 24 224.5t77 176.5t137 115t204 41q117 0 200.5 -39.5t137 -112.5t78.5 -175.5t25 -229.5q0 -125 -24 -226.5t-77 -174.5t-137 -112.5t-203 -39.5t-203 39.5t-137 112.5t-77.5 174.5t-24.5 226.5zM262 522q0 -104 16.5 -186t53 -139t95.5 -87t144 -30 q83 0 141.5 29.5t95 86.5t53 139t16.5 187q0 106 -16 189t-52 140t-94.5 86.5t-143.5 29.5q-86 0 -145 -30.5t-95.5 -88t-52.5 -140t-16 -186.5zM299 1300q0 45 18.5 67t69.5 22q53 0 71.5 -21.5t18.5 -67.5q0 -48 -19.5 -69t-70.5 -21q-27 0 -44 6.5t-27 18.5t-13.5 28.5 t-3.5 36.5zM669 1300q0 45 18.5 67t69.5 22q54 0 72 -21t18 -68q0 -48 -19.5 -69t-70.5 -21q-53 0 -70.5 25t-17.5 65z" />
<glyph unicode="&#xf7;" horiz-adv-x="1427" d="M178 532v111h1069v-111h-1069zM637 63v144h147v-144h-147zM637 967v143h147v-143h-147z" />
<glyph unicode="&#xf8;" horiz-adv-x="1141" d="M96 -76l137 195q-55 72 -79.5 174t-24.5 229q0 122 24 224.5t77 176.5t137 115t204 41q173 0 277 -92l96 137h113l-146 -204q51 -73 76 -173.5t25 -224.5q0 -125 -24 -226.5t-77 -174.5t-137 -112.5t-203 -39.5q-88 0 -155 21t-117 63l-92 -129h-111zM262 522 q0 -91 11.5 -164t37.5 -129l467 658q-38 42 -89.5 61t-117.5 19q-86 0 -145 -30.5t-95.5 -88t-52.5 -140t-16 -186.5zM369 152q38 -39 87.5 -55.5t114.5 -16.5q83 0 141.5 29.5t95 86.5t53 139t16.5 187q0 87 -10.5 158t-35.5 125z" />
<glyph unicode="&#xf9;" horiz-adv-x="1137" d="M174 348v701h129v-654q0 -88 7.5 -146.5t27 -94t53.5 -50t86 -14.5q71 0 161 52t187 145v762h129v-1049h-129v166q-44 -42 -89.5 -78.5t-92 -62.5t-93 -41t-93.5 -15q-85 0 -139.5 25t-86.5 73.5t-44.5 119t-12.5 161.5zM304 1569h176l186 -361h-104z" />
<glyph unicode="&#xfa;" horiz-adv-x="1137" d="M174 348v701h129v-654q0 -88 7.5 -146.5t27 -94t53.5 -50t86 -14.5q71 0 161 52t187 145v762h129v-1049h-129v166q-44 -42 -89.5 -78.5t-92 -62.5t-93 -41t-93.5 -15q-85 0 -139.5 25t-86.5 73.5t-44.5 119t-12.5 161.5zM482 1208l186 361h178l-260 -361h-104z" />
<glyph unicode="&#xfb;" horiz-adv-x="1137" d="M174 348v701h129v-654q0 -88 7.5 -146.5t27 -94t53.5 -50t86 -14.5q71 0 161 52t187 145v762h129v-1049h-129v166q-44 -42 -89.5 -78.5t-92 -62.5t-93 -41t-93.5 -15q-85 0 -139.5 25t-86.5 73.5t-44.5 119t-12.5 161.5zM256 1208l229 361h168l229 -361h-110l-203 265 l-203 -265h-110z" />
<glyph unicode="&#xfc;" horiz-adv-x="1137" d="M174 348v701h129v-654q0 -88 7.5 -146.5t27 -94t53.5 -50t86 -14.5q71 0 161 52t187 145v762h129v-1049h-129v166q-44 -42 -89.5 -78.5t-92 -62.5t-93 -41t-93.5 -15q-85 0 -139.5 25t-86.5 73.5t-44.5 119t-12.5 161.5zM293 1300q0 45 18.5 67t69.5 22q53 0 71.5 -21.5 t18.5 -67.5q0 -48 -19.5 -69t-70.5 -21q-27 0 -44 6.5t-27 18.5t-13.5 28.5t-3.5 36.5zM663 1300q0 45 18.5 67t69.5 22q54 0 72 -21t18 -68q0 -48 -19.5 -69t-70.5 -21q-53 0 -70.5 25t-17.5 65z" />
<glyph unicode="&#xfd;" horiz-adv-x="1018" d="M4 -365l37 109q25 -14 61 -21.5t70 -7.5q75 0 129 59.5t98 176.5l41 104l-383 994h140l311 -832l315 832h138l-453 -1147q-32 -81 -67.5 -138t-76.5 -92t-89 -51t-105 -16q-21 0 -44.5 2t-46 6t-42 9.5t-33.5 12.5zM415 1208l186 361h178l-260 -361h-104z" />
<glyph unicode="&#xfe;" horiz-adv-x="1151" d="M182 -395v1884h129v-555q31 31 67.5 58t77 46t84.5 30t89 11q106 0 180.5 -42.5t121.5 -116.5t69 -173.5t22 -214.5q0 -123 -25 -226.5t-76 -178.5t-128.5 -116.5t-182.5 -41.5q-77 0 -153.5 34.5t-145.5 100.5v-499h-129zM311 225q69 -65 143.5 -104t145.5 -39 q62 0 115 26t91.5 80.5t60.5 138.5t22 201q0 101 -16.5 182t-51 137.5t-87.5 87t-126 30.5q-80 0 -154.5 -42.5t-142.5 -111.5v-586z" />
<glyph unicode="&#xff;" horiz-adv-x="1018" d="M4 -365l37 109q25 -14 61 -21.5t70 -7.5q75 0 129 59.5t98 176.5l41 104l-383 994h140l311 -832l315 832h138l-453 -1147q-32 -81 -67.5 -138t-76.5 -92t-89 -51t-105 -16q-21 0 -44.5 2t-46 6t-42 9.5t-33.5 12.5zM237 1300q0 45 18.5 67t69.5 22q53 0 71.5 -21.5 t18.5 -67.5q0 -48 -19.5 -69t-70.5 -21q-27 0 -44 6.5t-27 18.5t-13.5 28.5t-3.5 36.5zM607 1300q0 45 18.5 67t69.5 22q54 0 72 -21t18 -68q0 -48 -19.5 -69t-70.5 -21q-53 0 -70.5 25t-17.5 65z" />
<glyph unicode="&#x152;" horiz-adv-x="1835" d="M139 692q0 168 29.5 301.5t98.5 226.5t181.5 143t278.5 50q60 0 115.5 -8t109.5 -21h746v-122h-633v-469h545v-123h-545v-547h633v-123h-744q-51 -14 -108 -21.5t-119 -7.5q-165 0 -277.5 50t-181.5 144t-99 227t-30 300zM285 692q0 -164 26.5 -278.5t81 -186 t138.5 -103.5t198 -32q51 0 104.5 8.5t94.5 24.5v1132q-41 16 -93 25.5t-106 9.5q-122 0 -207 -36t-137.5 -109.5t-76 -187t-23.5 -267.5z" />
<glyph unicode="&#x153;" horiz-adv-x="1792" d="M129 522q0 122 24 224.5t77 176.5t137 115t204 41q135 0 228 -60.5t139 -166.5q45 112 134 169.5t222 57.5q102 0 175 -32t119.5 -92.5t68.5 -148t22 -198.5v-84h-673q-1 -110 12.5 -193t47.5 -139t91.5 -84t145.5 -28q41 0 76 7.5t66 25t58 45t53 67.5l105 -67 q-29 -45 -62.5 -80t-76 -59t-96.5 -37t-123 -13q-134 0 -226 51.5t-139 167.5q-51 -104 -141 -161.5t-226 -57.5q-119 0 -203 39.5t-137 112.5t-77.5 174.5t-24.5 226.5zM262 522q0 -104 16.5 -186t53 -139t95.5 -87t144 -30q86 0 144.5 32t94.5 89.5t51.5 138t15.5 178.5 q0 97 -14 179.5t-49 142.5t-94 93.5t-149 33.5q-86 0 -145 -30.5t-95.5 -88t-52.5 -140t-16 -186.5zM1006 629h546q-2 177 -64.5 259.5t-195.5 82.5q-71 0 -122.5 -20t-86 -61.5t-53.5 -106t-24 -154.5z" />
<glyph unicode="&#x178;" horiz-adv-x="1126" d="M51 1384h150l362 -720l367 720h145l-444 -847v-537h-137v530zM291 1636q0 45 18.5 67t69.5 22q53 0 71.5 -21.5t18.5 -67.5q0 -48 -19.5 -69t-70.5 -21q-27 0 -44 6.5t-27 18.5t-13.5 28.5t-3.5 36.5zM661 1636q0 45 18.5 67t69.5 22q54 0 72 -21t18 -68q0 -48 -19.5 -69 t-70.5 -21q-53 0 -70.5 25t-17.5 65z" />
<glyph unicode="&#x2c6;" horiz-adv-x="1106" d="M240 1208l229 361h168l229 -361h-110l-203 265l-203 -265h-110z" />
<glyph unicode="&#x2dc;" horiz-adv-x="1106" d="M190 1214q5 118 60 177t149 59q37 0 68 -10.5t57 -26.5t49 -34.5t45 -34.5t44.5 -26.5t48.5 -10.5q51 0 77 32t31 101h94q-3 -115 -58.5 -174.5t-149.5 -59.5q-43 0 -74.5 11t-56.5 27t-45.5 35t-41.5 35t-44.5 27t-53.5 11q-51 0 -75 -34t-29 -104h-95z" />
<glyph unicode="&#x2000;" horiz-adv-x="952" />
<glyph unicode="&#x2001;" horiz-adv-x="1905" />
<glyph unicode="&#x2002;" horiz-adv-x="952" />
<glyph unicode="&#x2003;" horiz-adv-x="1905" />
<glyph unicode="&#x2004;" horiz-adv-x="635" />
<glyph unicode="&#x2005;" horiz-adv-x="476" />
<glyph unicode="&#x2006;" horiz-adv-x="317" />
<glyph unicode="&#x2007;" horiz-adv-x="317" />
<glyph unicode="&#x2008;" horiz-adv-x="238" />
<glyph unicode="&#x2009;" horiz-adv-x="381" />
<glyph unicode="&#x200a;" horiz-adv-x="105" />
<glyph unicode="&#x2010;" horiz-adv-x="848" d="M113 463v127h622v-127h-622z" />
<glyph unicode="&#x2011;" horiz-adv-x="848" d="M113 463v127h622v-127h-622z" />
<glyph unicode="&#x2012;" horiz-adv-x="848" d="M113 463v127h622v-127h-622z" />
<glyph unicode="&#x2013;" horiz-adv-x="1106" d="M61 471v111h983v-111h-983z" />
<glyph unicode="&#x2014;" horiz-adv-x="2130" d="M61 471v111h2007v-111h-2007z" />
<glyph unicode="&#x2018;" d="M172 1036q0 53 9 105t23.5 98t33 83.5t36.5 61.5h76q-20 -27 -35 -64.5t-25 -76.5t-15 -75t-5 -60q56 0 77.5 -22.5t21.5 -71.5q0 -47 -22.5 -69.5t-76.5 -22.5q-55 0 -76.5 30t-21.5 84z" />
<glyph unicode="&#x2019;" d="M172 1319q0 48 22 71t74 23q57 0 79 -30.5t22 -86.5q0 -52 -9 -103.5t-24 -97t-34 -83t-38 -62.5h-76q20 27 35 64.5t25 76.5t15 75t5 61q-54 0 -75 21t-21 71z" />
<glyph unicode="&#x201a;" d="M172 76q0 48 22 71t74 23q57 0 79 -30.5t22 -86.5q0 -52 -9 -103.5t-24 -97t-34 -83t-38 -62.5h-76q20 27 35 64.5t25 76.5t15 75t5 61q-54 0 -75 21t-21 71z" />
<glyph unicode="&#x201c;" horiz-adv-x="897" d="M172 1036q0 53 9 105t23.5 98t33 83.5t36.5 61.5h76q-20 -27 -35 -64.5t-25 -76.5t-15 -75t-5 -60q56 0 77.5 -22.5t21.5 -71.5q0 -47 -22.5 -69.5t-76.5 -22.5q-55 0 -76.5 30t-21.5 84zM528 1036q0 53 9 105t24 98t34 83.5t38 61.5h76q-20 -27 -35 -64.5t-25 -76.5 t-15 -75t-5 -60q54 0 75 -22.5t21 -71.5q0 -47 -22 -69.5t-74 -22.5q-57 0 -79 30t-22 84z" />
<glyph unicode="&#x201d;" horiz-adv-x="897" d="M172 1319q0 48 22 71t74 23q57 0 79 -30.5t22 -86.5q0 -52 -9 -103.5t-24 -97t-34 -83t-38 -62.5h-76q20 27 35 64.5t25 76.5t15 75t5 61q-54 0 -75 21t-21 71zM528 1319q0 48 22.5 71t76.5 23q55 0 76.5 -30.5t21.5 -86.5q0 -52 -9 -103.5t-23.5 -97t-33 -83 t-36.5 -62.5h-76q20 27 35 64.5t25 76.5t15 75t5 61q-56 0 -77.5 21t-21.5 71z" />
<glyph unicode="&#x201e;" horiz-adv-x="897" d="M172 76q0 48 22 71t74 23q57 0 79 -30.5t22 -86.5q0 -52 -9 -103.5t-24 -97t-34 -83t-38 -62.5h-76q20 27 35 64.5t25 76.5t15 75t5 61q-54 0 -75 21t-21 71zM528 76q0 48 22.5 71t76.5 23q55 0 76.5 -30.5t21.5 -86.5q0 -52 -9 -103.5t-23.5 -97t-33 -83t-36.5 -62.5 h-76q20 27 35 64.5t25 76.5t15 75t5 61q-56 0 -77.5 21t-21.5 71z" />
<glyph unicode="&#x2022;" horiz-adv-x="780" d="M147 745q0 51 19.5 95t53 77t78 51.5t93.5 18.5t92.5 -18.5t76.5 -51t52 -76.5t19 -96q0 -50 -19 -94t-51.5 -76.5t-76 -51.5t-93.5 -19q-51 0 -95.5 19t-77.5 51.5t-52 76.5t-19 94z" />
<glyph unicode="&#x2026;" horiz-adv-x="2048" d="M242 78q0 48 22.5 70t75.5 22q54 0 76 -21.5t22 -70.5q0 -53 -23.5 -72.5t-74.5 -19.5q-56 0 -77 23.5t-21 68.5zM924 78q0 48 22.5 70t75.5 22q54 0 76 -21.5t22 -70.5q0 -53 -23.5 -72.5t-74.5 -19.5q-56 0 -77 23.5t-21 68.5zM1606 78q0 48 22.5 70t75.5 22 q54 0 76 -21.5t22 -70.5q0 -53 -23.5 -72.5t-74.5 -19.5q-56 0 -77 23.5t-21 68.5z" />
<glyph unicode="&#x202f;" horiz-adv-x="381" />
<glyph unicode="&#x2039;" horiz-adv-x="672" d="M76 524l381 471h145l-381 -471l381 -471h-145z" />
<glyph unicode="&#x203a;" horiz-adv-x="672" d="M70 53l379 471l-379 471h145l379 -471l-379 -471h-145z" />
<glyph unicode="&#x205f;" horiz-adv-x="476" />
<glyph unicode="&#x20ac;" horiz-adv-x="1255" d="M35 518l35 96h65v160h-100l35 96h73q15 132 55 233t107 170t161 104.5t218 35.5q92 0 164 -19.5t127.5 -54.5t96.5 -84.5t73 -109.5l-119 -70q-24 48 -53.5 88t-70 69t-93.5 45.5t-123 16.5q-92 0 -161.5 -28t-118.5 -82t-78.5 -133t-42.5 -181h624l-32 -96h-598v-160 h555l-35 -96h-514q13 -103 43 -182.5t79.5 -134t120 -83t164.5 -28.5q79 0 136 21t98 54.5t69 75t49 83.5l115 -64q-32 -64 -72.5 -117t-95.5 -91.5t-128.5 -59.5t-170.5 -21q-249 0 -384.5 137t-164.5 410h-108z" />
<glyph unicode="&#x2122;" horiz-adv-x="1565" d="M92 1282v102h553v-102h-221v-612h-111v612h-221zM807 670v714h139l187 -374l194 374h131v-714h-108v538l-183 -346h-75l-174 342v-534h-111z" />
<glyph unicode="&#x25fc;" horiz-adv-x="1050" d="M0 0v1050h1050v-1050h-1050z" />
</font>
</defs>
</svg>
