<?xml version="1.0" standalone="no"?>
<!DOCTYPE svg PUBLIC "-//W3C//DTD SVG 1.1//EN" "http://www.w3.org/Graphics/SVG/1.1/DTD/svg11.dtd" >
<svg xmlns="http://www.w3.org/2000/svg">
<metadata></metadata>
<defs>
<font id="hoboregular" horiz-adv-x="897" >
<font-face units-per-em="2048" ascent="1638" descent="-410" />
<missing-glyph horiz-adv-x="516" />
<glyph horiz-adv-x="0" />
<glyph unicode="&#xd;" horiz-adv-x="516" />
<glyph unicode=" "  horiz-adv-x="516" />
<glyph unicode="&#x09;" horiz-adv-x="516" />
<glyph unicode="&#xa0;" horiz-adv-x="516" />
<glyph unicode="!" horiz-adv-x="495" d="M45 152q0 96 59 153q53 51 129 51q78 0 140 -49q69 -55 69 -139q0 -94 -59 -149.5t-137 -55.5h-8q-78 0 -135.5 51.5t-57.5 137.5zM45 1311q0 123 66 123h290q29 0 29 -33q0 -37 -16 -74q-111 -252 -111 -491q0 -115 12 -287q4 -57 4 -49q0 -45 -90 -45q-57 0 -61 24 q-63 143 -96 432q-27 217 -27 400z" />
<glyph unicode="&#x22;" horiz-adv-x="1187" d="M102 1274q16 20 25 20l176 152q18 16 57 16q61 0 115 -56t62 -136q0 -88 -68 -168q-90 -109 -260 -119q-16 0 -16 8q45 78 45 131q0 39 -50.5 95.5t-81.5 56.5h-4zM651 1270q0 10 21 20l176 156q25 12 57 12q63 0 117.5 -57t58.5 -135q4 -86 -63 -168q-90 -106 -264 -115 q-12 0 -13 4q16 20 33 70q12 43 12 65q0 47 -44 97.5t-91 50.5z" />
<glyph unicode="#" horiz-adv-x="1728" d="M135 455q0 27 21 41q12 6 49 8l207 10l110 338h-182q-29 0 -61.5 34t-32.5 64q0 29 24 41q2 2 54 13q127 8 251 12l121 368q41 94 127 95h33q41 -12 41 -49q0 -31 -16 -74l-123 -330q102 6 379 21l104 321q31 94 123 94h33q45 -12 45 -49q0 -18 -21 -74l-104 -282l174 8 q47 2 88 -28.5t43 -69.5l4 -54q4 -57 -82 -57l-301 -2l-113 -301l250 12q45 2 90.5 -28.5t45.5 -57.5v-61q0 -47 -28 -53.5t-54 -8.5h-375l-121 -323q-6 -29 -39 -55.5t-59 -26.5q-37 0 -37 49q0 25 12 61l96 295h-401l-113 -307q-10 -31 -42.5 -56.5t-59.5 -25.5 q-37 0 -37 49l12 62l90 278h-139q-27 0 -56.5 35t-29.5 64zM571 522q201 12 402 21l100 311q-190 0 -379 -2z" />
<glyph unicode="$" horiz-adv-x="1097" d="M53 1053q0 125 84 236.5t211 131.5q61 10 74 17q20 8 20 37q0 53 45 53h54q29 0 28 -29v-24q0 -41 82 -41q76 -16 150 -33q88 -23 88 -45q0 -14 -8 -45q-14 -55 -54 -152q-12 -20 -41 -20q-23 0 -57 20q-53 41 -106 41t-54 -65v-205q0 -51 47 -76q45 -16 89 -35 q90 -47 157 -114q142 -138 142 -308q0 -190 -130 -303q-100 -90 -196 -90t-96 -55t-41 -55h-66q-31 6 -35 44.5t-22 49.5q-90 0 -207 45q-131 51 -137 106q0 4 2 14.5t2 14.5q20 74 69 201q10 33 33 32q23 0 33 -20q76 -66 135 -78q8 -2 27.5 -9t25.5 -7q41 0 41 94v197 q0 61 -94 94q-141 49 -223 159q-72 102 -72 222zM295 1053q0 -37 42 -92.5t73 -55.5q32 0 32 66v188q0 49 -32 49q-35 0 -72 -47q-43 -51 -43 -108zM569 356q0 -70 54 -69q63 0 102 47q33 41 33 88q0 51 -48 105.5t-100 54.5q-41 0 -41 -45v-181z" />
<glyph unicode="%" horiz-adv-x="1433" d="M94 1094q0 147 66 241q74 111 217 111q131 0 203 -125q59 -104 55 -227q-6 -156 -78 -250t-192 -94q-147 0 -218 114q-53 90 -53 230zM266 1118q0 -160 99 -160q94 1 94 189q0 164 -94 164q-47 0 -76 -66q-23 -55 -23 -127zM344 16q0 4 21 58l499 1278q47 123 172 123 q33 0 57.5 -16.5t24.5 -41.5q0 -14 -4 -24l-598 -1348q-12 -29 -49 -51.5t-70 -22.5q-53 0 -53 45zM770 303q0 117 51 211q78 141 240 141q123 0 190 -104q62 -92 68 -248q6 -135 -76 -237.5t-211 -102.5q-117 0 -194 113q-68 102 -68 227zM950 328q0 -147 94 -148 q95 0 95 176q0 180 -95 181q-45 0 -71 -70q-23 -59 -23 -139z" />
<glyph unicode="&#x26;" horiz-adv-x="1703" d="M102 328q0 233 283 450q8 8 8 29q0 35 -53 135t-53 164q0 137 100 237q119 119 326 119q160 0 264 -87t104 -212q0 -96 -65 -192q-14 -23 -125 -123q-84 -78 -84 -123q0 -33 23.5 -63.5t49 -59.5t50.5 -29q29 0 45 29q76 88 194 156q127 74 228 73q96 0 153 -51 q52 -45 52 -108q-10 -119 -66 -119q-20 0 -86 37q-23 12 -49 12q-78 0 -188.5 -90t-110.5 -147q0 -35 57 -60q45 -18 86 -18q82 0 152 57q25 20 45 21q8 0 8 -46q0 -147 -79 -245.5t-204 -98.5q-98 0 -175 61.5t-111 61.5q-51 0 -99 -41q-141 -82 -299 -82q-381 0 -381 353z M397 356q0 -31 37 -67q45 -47 119 -56q45 0 96 21q64 29 64 74q0 35 -25 69q-121 172 -160 172q-37 0 -84 -71.5t-47 -141.5zM578 1147q0 -55 26 -109q29 -59 68 -59q57 0 100 63q39 58 39 113q0 98 -111 98q-123 0 -122 -106z" />
<glyph unicode="'" horiz-adv-x="516" d="M49 1274q16 20 25 20l176 152q18 16 57 16q61 0 114.5 -56t61.5 -136q0 -88 -67 -168q-90 -109 -260 -119q-16 0 -17 8q45 78 45 131q0 39 -50 95.5t-81 56.5h-4z" />
<glyph unicode="(" horiz-adv-x="675" d="M94 791q0 283 84 462q96 209 285 209q53 0 117 -102q55 -88 55 -123q0 -25 -66 -25q-279 0 -278 -483q0 -106 31 -328q33 -256 71 -327q8 -14 8 -29q0 -20 -47 -45t-71 -25q-49 0 -70 70q-35 78 -74 317q-45 258 -45 429z" />
<glyph unicode=")" horiz-adv-x="716" d="M25 201q0 25 65 24q279 0 279 484q0 106 -31 327q-33 256 -72 328q-8 14 -8 29q0 20 47 44.5t72 24.5q49 0 69 -69q35 -78 76 -318q43 -258 43 -428q0 -283 -82 -461q-98 -211 -286 -211q-53 0 -117 103q-55 88 -55 123z" />
<glyph unicode="*" horiz-adv-x="876" d="M94 1159q14 47 41 123q23 41 53 41q16 0 41 -12q66 -33 127 -58l-12 168q-4 66 53 66h95q66 0 65 -49l-25 -185q20 14 119 58q61 12 49 12q27 0 33 -29l45 -106q8 -19 8 -33q0 -18 -22 -25q-29 -6 -55 -12l-136 -24l95 -95q37 -37 37 -57q0 -12 -25 -24l-94 -70 q-16 -16 -37 -17q-33 0 -57 58l-41 94q-49 -72 -82 -135q-6 -20 -25 -21q-4 0 -45 21q-82 57 -111 82q-12 25 -12 20q0 10 41 49l98 95q-68 8 -137 18q-84 14 -84 47z" />
<glyph unicode="+" horiz-adv-x="1056" d="M115 561q0 76 16 109q20 47 82 47q14 0 36.5 -2t29.5 -2q88 0 112.5 28.5t26.5 130.5q2 86 71 123q68 27 134 54q35 16 45 16q27 0 24 -37q-4 -86 -28.5 -190.5t-24.5 -112.5q0 -20 94 -20q8 0 57.5 8t61.5 8q66 0 66 -90q0 -106 -41 -107q-12 0 -44 10.5t-47 10.5 q-115 -4 -159 -94q-33 -66 -33 -205q0 -66 -63.5 -115t-124.5 -49q-2 0 -8.5 2t-8.5 2q-33 6 -33 29v159q0 262 -32 263l-50 -13q-51 -12 -110 -12q-4 0 -12.5 2t-12.5 2q-25 0 -24 45z" />
<glyph unicode="," horiz-adv-x="540" d="M20 184q16 20 25 21l176 151q18 16 58 17q61 0 114.5 -56.5t61.5 -136.5q0 -88 -68 -168q-90 -109 -260 -118q-16 0 -16 8q45 78 45 131q0 39 -50.5 95t-80.5 56h-5z" />
<glyph unicode="-" horiz-adv-x="630" d="M86 479q16 94 33 125q27 51 90 51h254q63 1 61 -24q-4 -63 -35 -127q-41 -82 -108 -82h-213q-82 0 -82 57z" />
<glyph unicode="." horiz-adv-x="540" d="M45 168q-2 84 57 139q55 49 131 49q86 0 147.5 -51t61.5 -137q0 -92 -58 -144.5t-138 -52.5h-8q-76 0 -133.5 52.5t-59.5 144.5z" />
<glyph unicode="/" horiz-adv-x="1077" d="M143 12q0 18 17 62l504 1306q47 94 147 95h41q49 -13 49 -50q0 -12 -20 -73l-574 -1307q-8 -31 -47 -56.5t-72 -25.5q-45 0 -45 49z" />
<glyph unicode="0" horiz-adv-x="1056" d="M61 705q0 299 121 509q131 231 346 232q227 0 353 -264q98 -212 98 -486q0 -254 -72 -436q-113 -285 -379 -285q-195 0 -325 191q-141 205 -142 539zM336 725q0 -438 192 -438q106 0 156 180q33 118 33 270q0 463 -189 463q-193 0 -192 -475z" />
<glyph unicode="1" horiz-adv-x="606" d="M57 1286q0 51 106.5 105.5t201.5 54.5q127 0 127 -82q0 -78 -23 -271.5t-23 -261.5q0 -137 27 -416.5t27 -357.5q0 -53 -41 -69q-41 -8 -111 -8h-74q-61 0 -75 45q-16 53 -19 278q0 18 21 770q2 109 -82 139q-61 31 -62 74z" />
<glyph unicode="2" horiz-adv-x="1011" d="M74 45q0 268 123 444q57 78 258 248q123 102 149 133q68 76 68 154q0 176 -152 176q-137 0 -258 -242q-12 -25 -24 -24q-18 0 -45 37l-66 123q-25 45 -25 69q0 6 4.5 19.5t4.5 17.5q53 104 169.5 175t239.5 71q139 0 256 -76q154 -100 154 -293q0 -184 -125 -338 q-98 -119 -309 -260q-102 -68 -127 -151q0 -41 32 -41q12 0 51.5 8t55.5 8q53 0 125 -14.5t92 -14.5q111 0 111 132q-12 31 -13 57q0 14 4 29q115 -52 115 -222q0 -104 -68 -192q-76 -102 -190 -103q-88 0 -177 20.5t-138 20.5q-33 0 -111 -22.5t-106 -22.5q-78 0 -78 74z " />
<glyph unicode="3" horiz-adv-x="987" d="M70 188q0 2 2 10.5t2 10.5q47 70 94 139.5t70 69.5q14 0 49 -27q39 -33 45 -35q74 -61 143 -61q76 0 133 67q51 61 51 134q0 78 -71 137q-80 68 -215 76q-123 8 -123 49q0 25 41 73q131 160 274 304q25 25 25 36q0 16 -78 17q-115 0 -233 -41l-82 -29q-25 0 -25 29 q-41 102 -41 233q0 31 19 39q6 2 47 2h610q53 0 70.5 -23.5t15.5 -86.5q-6 -123 -117 -269q-41 -53 -149 -161q0 -12 45 -33q109 -47 179.5 -143t70.5 -209q0 -225 -144 -379q-135 -141 -307 -142q-170 0 -295 84q-106 70 -106 129z" />
<glyph unicode="4" horiz-adv-x="1056" d="M45 479q0 352 336 803q49 47 96 96q53 43 113 43h135q74 0 74 -37q0 -27 -33 -57q-117 -111 -258 -301q-170 -229 -201 -358l-4 -9q0 -29 66 -28q76 0 127 39q43 33 53 80q10 88 59 192q55 123 129 176q45 33 70 33q20 0 20 -25q0 -20 -8 -32q-45 -135 -45 -271 q0 -53 17 -110q4 -29 98 -34t94 -48v-152q0 -82 -57 -82q-27 12 -119 17q-70 0 -70 -86q0 -53 6.5 -161t6.5 -122q0 -39 -37 -51q-12 -4 -99 -19q-25 -4 -65 -4q-86 0 -86 66q4 41 26 160q18 94 19 147q0 61 -66 62h-28q-33 0 -134.5 -29t-144.5 -29q-90 0 -90 131z" />
<glyph unicode="5" horiz-adv-x="966" d="M49 152q0 102 98 229q10 33 33 33q16 0 49 -33q94 -94 193 -94q98 0 156 61q49 55 49 135q0 82 -55.5 147.5t-141.5 65.5q-123 0 -176 -53q-29 -29 -70 -29q-115 0 -106 193q14 348 82 545q18 53 94 53h491q47 0 64.5 -6t17.5 -31q0 -88 -28 -180q-12 -37 -54 -37 q-86 29 -237 29q-115 0 -156 -52.5t-41 -185.5q0 -57 25 -57q119 33 164 33q180 0 291 -142q98 -127 98 -297q0 -203 -103 -340q-125 -164 -364 -164q-217 0 -344 111q-29 25 -29 66z" />
<glyph unicode="6" horiz-adv-x="1077" d="M78 655q0 344 162.5 561.5t435.5 217.5q72 0 135 -15q94 -20 94 -63q0 -37 -28 -115q-35 -98 -78 -98q-10 0 -62.5 28.5t-85.5 28.5q-92 0 -194 -96q-109 -102 -109 -215q0 -33 25 -33q18 0 45 21q106 53 205 53q168 0 268 -148q88 -131 88 -303q0 -186 -105 -334 q-127 -182 -346 -182q-236 0 -352 215q-98 178 -98 477zM336 496q0 -109 65 -177q57 -61 136 -61q78 0 135 64.5t57 173.5q0 96 -59 151q-55 49 -142 49q-80 0 -133 -49q-59 -55 -59 -151z" />
<glyph unicode="7" horiz-adv-x="966" d="M66 1352q0 49 10 59t43 10h651q98 0 98 -49v-143q-4 -35 -57 -119q-141 -219 -188 -309q-123 -238 -123 -400q0 -90 42 -149t122 -59q14 0 32.5 2t20.5 2q12 0 12 -21v-24q-29 -76 -98 -123q-76 -53 -172 -54q-104 0 -187 84q-88 88 -88 215q0 371 398 820q33 49 32 61 q0 33 -73 33h-193q-131 0 -188 -94q-23 -37 -49 -37q-16 0 -17 37z" />
<glyph unicode="8" horiz-adv-x="1097" d="M66 328q-2 70 32 151q45 111 144 193q33 33 32 57q0 35 -32 62q-111 119 -111 270q0 137 94 244q113 125 316 129q166 2 274 -82q123 -92 123 -258q0 -82 -43 -150q-23 -33 -82 -94q-43 -43 -43 -68q0 -8 16 -32q72 -68 144 -138q74 -90 74 -231q0 -166 -99 -272 q-121 -133 -364 -134q-209 0 -330 80q-139 92 -145 273zM365 397q0 -123 176 -123t176 123q0 82 -52.5 143.5t-123.5 61.5q-94 0 -140 -72q-37 -55 -36 -133zM377 1065q8 -86 61 -139q47 -49 103 -49q59 0 105 61t46 127q0 70 -45 117t-106 47q-57 0 -107 -41 q-57 -47 -57 -123z" />
<glyph unicode="9" horiz-adv-x="1077" d="M78 930q0 188 98 330q123 174 352 174q209 0 338 -195q113 -172 113 -399q0 -299 -96 -518q-154 -346 -506 -347q-225 0 -225 86q0 20 8 37q16 72 69 205q6 29 21 29q8 0 33 -17q51 -45 114 -45q98 0 190.5 87t117.5 204v21q0 33 -29 32q-16 0 -41 -12q-104 -66 -205 -65 q-160 0 -256 112.5t-96 280.5zM307 971q0 -98 68 -154q59 -51 141 -51q86 0 143.5 69.5t57.5 155.5v4q0 82 -60.5 137.5t-128.5 55.5q-104 0 -162.5 -57.5t-58.5 -159.5z" />
<glyph unicode=":" horiz-adv-x="561" d="M70 168q-2 84 57 139q55 49 131 49q88 0 143 -43q62 -51 62 -145q0 -92 -56.5 -144.5t-132.5 -52.5q-78 0 -137 52q-66 55 -67 145zM70 942q-2 88 57 140.5t143 52.5q80 0 140 -45q69 -54 69 -148q0 -88 -61.5 -139t-143.5 -53q-80 -2 -141 49t-63 143z" />
<glyph unicode=";" horiz-adv-x="585" d="M86 184q16 20 25 21l176 151q18 16 57 17q61 0 114.5 -56.5t61.5 -136.5q0 -88 -67 -168q-90 -109 -260 -118q-16 0 -17 8q45 78 45 131q0 39 -50 95t-81 56h-4zM111 942q0 88 61 143q55 49 131 50q84 0 143 -50q62 -55 62 -143q0 -92 -64 -147q-55 -49 -133 -50l-4 5 q-80 0 -135 49q-61 53 -61 143z" />
<glyph unicode="&#x3c;" horiz-adv-x="1122" d="M127 631q0 53 104 143q119 102 291 168q213 82 449 82q35 0 40 -8t5 -62q0 -205 -25 -204l-53 8t-78 8q-145 0 -295.5 -56.5t-150.5 -107.5q0 -78 170 -129q150 -47 321 -47q59 0 78 -6q33 -12 33 -51v-95q0 -57 -6 -67t-43 -10q-266 0 -478 94q-168 72 -274 188 q-88 96 -88 152z" />
<glyph unicode="=" horiz-adv-x="741" d="M106 393q20 78 41 105q35 43 115 43h320q79 -1 77 -21q-4 -53 -43 -104q-53 -68 -137 -68h-270q-102 0 -103 45zM115 733q20 78 41 105q35 43 114 43h320q80 -1 78 -21q-4 -53 -43 -104q-53 -68 -138 -68h-270q-102 0 -102 45z" />
<glyph unicode="&#x3e;" horiz-adv-x="1097" d="M147 279v94q0 39 33 51q20 6 78 6q172 0 324 47q168 51 168 129q0 51 -150.5 107.5t-296.5 56.5q-25 0 -78 -8l-53 -8q-25 0 -25 204q0 53 6.5 61.5t39.5 8.5q236 0 448 -82q172 -66 291 -168q104 -90 104 -143q0 -55 -88 -152q-106 -117 -274 -188q-211 -94 -477 -94 q-37 0 -43.5 10t-6.5 68z" />
<glyph unicode="?" horiz-adv-x="831" d="M53 1286q0 31 33 66q117 123 258 123q190 0 293 -160q76 -121 76 -262q0 -133 -76 -236q-41 -53 -129 -121q-70 -53 -90 -75q-49 -55 -49 -125q0 -20 -86 -21q-90 0 -90 21v176q12 98 83 170q63 53 125 106q66 61 66 142q0 47 -44 93t-95 46q-41 0 -82 -41 q-14 -16 -27 -35q-18 -23 -31 -23q-10 0 -20 17q-35 33 -94 94q-20 23 -21 45zM86 168q0 86 59 139q53 49 129 49q84 0 144.5 -51t60.5 -137q0 -96 -58.5 -150.5t-137.5 -54.5q-78 0 -137.5 55.5t-59.5 149.5z" />
<glyph unicode="@" horiz-adv-x="1167" d="M57 655q0 276 123 498q174 309 533 309q160 0 278 -63q127 -68 160 -187q0 -430 -94 -591q-70 -121 -230 -125q-2 0 -12 -2t-12 -2q-270 0 -271 151q0 244 222 270q188 23 188 62q0 238 -229 237q-158 0 -260 -147q-96 -139 -97 -340q0 -186 109.5 -318.5t271.5 -132.5 q84 0 186.5 68t116.5 137q16 53 25 53q23 0 29 -53q8 -70 8 -106q0 -178 -127 -293q-133 -117 -352 -117q-262 0 -426 238q-139 203 -140 454zM659 684q0 -35 27 -56.5t64 -21.5l12 4q47 8 61 13q43 14 45 36l9 127q2 16 -95 17q-41 -6 -82 -42t-41 -77z" />
<glyph unicode="A" horiz-adv-x="1212" d="M53 381q0 264 119 534q102 227 254 392q138 151 224 151h1q96 0 207 -119q127 -135 205 -358q92 -266 92 -600q0 -121 -16 -221q-29 -160 -90 -160h-271q-20 0 -20 16q0 10 57 123q86 168 86 279q0 57 -59 90q-51 29 -129 29q-135 0 -234 -48q-131 -59 -131 -178 q0 -68 64 -198q47 -94 47 -97q0 -16 -62 -16h-217q-127 0 -127 381zM389 762q0 -33 29 -33q2 0 15 4t18 4q14 0 121.5 20.5t160.5 20.5q10 0 34 -2t32 -2q57 0 57 53q0 94 -69.5 211t-122.5 117q-61 0 -167 -143.5t-108 -249.5z" />
<glyph unicode="B" horiz-adv-x="1122" d="M53 369v479q0 242 53 504q12 55 29 74.5t66 19.5h409q199 0 290 -58.5t91 -199.5q0 -135 -164 -299q-37 -29 -36 -53q0 -29 53 -70q117 -121 164 -207q53 -98 53 -215q0 -338 -369 -340l-545 -4q-59 0 -79 90q-14 72 -15 279zM307 877q0 -66 49 -66q45 0 90 37 q98 51 170 123q89 88 89 164q0 47 -43.5 72.5t-104.5 25.5q-250 0 -250 -356zM319 463q0 -233 177 -234q274 1 274 181q0 72 -67.5 179t-124.5 107q-86 0 -213 -94q-45 -90 -46 -139z" />
<glyph unicode="C" horiz-adv-x="1142" d="M57 655q0 276 123 498q174 309 533 309q162 0 274 -65q119 -72 119 -185q0 -59 -36 -105t-87 -54q-37 -12 -45 -13q-49 0 -49 37q-27 135 -176 135q-158 0 -260 -147q-96 -139 -97 -340q0 -186 109.5 -318.5t271.5 -132.5q92 0 178 52q96 59 125 153q8 53 25 53 q23 0 29 -53q8 -70 8 -106q0 -182 -117 -293q-125 -117 -342 -117q-264 0 -436 238q-150 207 -150 454z" />
<glyph unicode="D" horiz-adv-x="1142" d="M37 696q0 154 18 369q18 227 39 287q23 94 78 94h287q211 0 391 -191q229 -241 235 -677v-19q0 -276 -112 -405q-129 -150 -432 -150h-381q-106 0 -107 164q0 29 -8 209t-8 319zM311 614q0 -178 57.5 -281.5t159.5 -103.5q135 0 211 144q60 113 60 258q0 188 -94 373 q-102 204 -237 204h-1q-156 0 -156 -594z" />
<glyph unicode="E" horiz-adv-x="1032" d="M41 156q0 68 43 524q51 520 88 688q14 66 119 66h590q90 0 90 -41q0 -8 -8 -41l-99 -193q-6 -25 -33 -24q-12 0 -77 41q-44 36 -158 36h-6q-111 0 -180.5 -64.5t-69.5 -168.5q0 -82 57 -82q16 0 146.5 41t181.5 41q66 0 66 -45q0 -12 -9 -45l-82 -205q-6 -33 -28 -33 q-8 0 -62.5 18.5t-77.5 18.5q-98 0 -161.5 -76.5t-63.5 -169.5q0 -78 54.5 -139t150.5 -70q137 0 242 70q61 41 82 41q18 0 45 -41q29 -57 55 -113q47 -102 47 -153q0 -23 -22 -29q-14 -4 -68 -4h-762q-2 0 -8 -2t-8 -2q-74 0 -74 156z" />
<glyph unicode="F" horiz-adv-x="966" d="M41 643q0 496 70 725q20 66 106 66h631q115 0 115 -66q0 -29 -9 -41q-70 -139 -94 -180q-20 -33 -45 -33q-10 0 -52 33t-83 41t-94 8q-127 0 -194.5 -73.5t-67.5 -196.5q0 -90 65 -90q29 0 148.5 41t171.5 41q78 0 77 -41v-5q0 -84 -53 -217q-10 -45 -57 -45 q-12 0 -53 10.5t-66 10.5q-217 0 -217 -221q0 -33 30.5 -194t30.5 -183q0 -29 -36 -29h-242l-8 -4q-49 0 -64 131q-10 109 -10 512z" />
<glyph unicode="G" horiz-adv-x="1142" d="M45 614v24q0 233 111 452q174 344 540 344q168 0 279 -76q102 -74 102 -170q0 -66 -39 -113q-45 -51 -120 -51q-41 0 -58 39q-4 8 -12 55q-8 31 -54 50.5t-98 19.5q-193 0 -288 -182q-70 -137 -80 -351q-1 -15 -1 -29q0 -116 44 -210q68 -145 211 -146q84 0 166.5 49.5 t82.5 118.5q0 49 -69.5 116t-69.5 81q0 16 21 20q182 98 282 99q27 0 45 -41q54 -179 54 -410q0 -143 -107 -235q-121 -104 -344 -105q-299 0 -455 193q-137 172 -143 458z" />
<glyph unicode="H" horiz-adv-x="1212" d="M53 455q0 551 82 884q23 94 82 95h221q41 0 41 -29q0 -27 -16 -53q-25 -59 -57 -176q-41 -141 -41 -205q0 -98 36 -99q-12 0 37 17q78 41 348 41q49 0 50 53q0 45 -41 164q-37 104 -74 180q-29 59 -29 78q0 29 29 29h233q53 0 82 -82q63 -188 84 -430q10 -136 10 -402 q0 -31 -6 -188.5t-6 -233.5q0 -94 -69 -94h-189q-110 0 -110 36q0 13 12 46q110 288 110 448q0 162 -161 162h-2q-135 0 -243 -72.5t-114 -181.5v-10q0 -51 16 -168q18 -129 38 -168t20 -67q0 -25 -61 -25h-209q-102 0 -103 451z" />
<glyph unicode="I" horiz-adv-x="471" d="M45 684q0 500 66 696q23 66 98 66h147q78 0 78 -41q0 -39 -47 -311.5t-47 -368.5q0 -297 86 -651q8 -33 8 -45q0 -29 -41 -29l-225 4q-53 0 -72 37q-6 12 -22 98q-29 152 -29 545z" />
<glyph unicode="J" horiz-adv-x="696" d="M16 111q0 37 33 127q29 84 49 118q18 25 33 25q20 0 49 -53q45 -82 86 -82q39 0 68 143q22 118 22 232v10q0 246 -47 512q-27 133 -55 266h-4q0 12 25.5 24.5t52.5 12.5h180q53 0 73.5 -15.5t20.5 -62.5q41 -258 41 -713q0 -309 -55 -462q-82 -229 -301 -230 q-84 0 -177.5 54.5t-93.5 93.5z" />
<glyph unicode="K" horiz-adv-x="1077" d="M29 422q0 37 2 95t2 73q0 557 53 778q10 45 27.5 61.5t66.5 16.5h164q53 0 53 -33q0 -31 -47 -219t-47 -305q0 -70 25 -70q76 0 225 252q129 219 160 334q10 41 65 41h164q31 0 39 -19q2 -6 2 -47q0 -92 -78 -221q-18 -31 -127 -151q-86 -92 -86 -136q0 -16 21 -36 q29 -31 37 -45q113 -162 147 -230q127 -250 127 -508q0 -49 -41 -49h-233q-66 0 -66 82q0 172 -55 360q-59 205 -129 205q-41 0 -109 -80q-76 -86 -76 -161q0 -23 27 -177q29 -176 31 -196v-8q0 -25 -70 -25h-180q-94 0 -94 418z" />
<glyph unicode="L" horiz-adv-x="921" d="M41 111q0 293 43 729q41 426 80 553l4 16q12 37 61 37h222q53 0 53 -41q0 -66 -96.5 -421t-96.5 -423q0 -340 193 -340q123 0 246 123q25 25 36 25q29 0 44.5 -40t70.5 -272v-28q0 -29 -37 -29l-729 4q-94 0 -94 107z" />
<glyph unicode="M" horiz-adv-x="1478" d="M53 537q0 909 164 909h135q115 0 213 -139q53 -78 127 -254q29 -70 37 -70q12 0 33 57q37 102 139 238q121 160 201 168h151q143 0 144 -610v-263q0 -573 -82 -573l-4 4h-221q-78 0 -78 33q0 61 49 342q51 299 57 399q1 14 1 29q0 55 -11 137q-18 125 -47 125 q-41 0 -141 -287q-92 -264 -104 -359t-95 -95q-37 0 -71 28.5t-36 65.5q-41 201 -114 407q-86 240 -140 240q-57 0 -57 -258q0 -14 2 -32.5t2 -20.5q0 -444 99 -684q8 -20 8 -37q0 -31 -62 -33l-200 -4h-1q-97 0 -98 537z" />
<glyph unicode="N" horiz-adv-x="1187" d="M45 709q0 737 148 737h81q109 0 279 -248q123 -182 254 -453q29 -61 49 -61q16 0 16 78v8q0 78 -36 315q-35 209 -58 308q0 53 58 53h147q45 0 64 -39q2 -8 18 -80q49 -225 49 -704q0 -365 -37 -537q-10 -49 -18 -61q-14 -20 -60 -21h-151q-53 0 -70 6q-29 10 -28 47 q0 172 -189 555q-184 375 -254 375q-28 0 -28 -134v-9q0 -170 24 -420q23 -260 53 -379q0 -33 -20 -39q-6 -2 -49 -2h-148q-2 0 -6 -2t-6 -2q-53 0 -53 127q-25 205 -25 545q0 4 -2 17t-2 20z" />
<glyph unicode="O" horiz-adv-x="1277" d="M57 537q23 393 181 657q168 281 413 281q258 0 428 -330q150 -286 150 -608q0 -225 -82 -353q-135 -209 -492 -209q-313 0 -446 121q-139 127 -152 441zM352 610q0 -323 289 -323h2q299 0 299 262q0 285 -102 473q-92 166 -197 166q-98 0 -192 -182q-98 -188 -99 -396z " />
<glyph unicode="P" horiz-adv-x="1077" d="M57 705q0 326 41 589q12 80 39 116t84 36h516q168 0 262 -113q78 -94 78 -215q0 -291 -393 -475q-303 -143 -303 -262q0 -47 23.5 -162t37.5 -145q0 -6 2 -20.5t2 -16.5q0 -33 -49 -33l-241 -4q-53 0 -72 96q-8 47 -10 166q0 27 -8 195q-8 147 -9 248zM344 819 q0 -82 49 -82q80 0 230 119q159 127 159 221q0 80 -86 121q-66 31 -147 31q-125 0 -170 -152q-16 -57 -35 -258z" />
<glyph unicode="Q" horiz-adv-x="1232" d="M53 672q0 403 174 614q147 176 371 176q248 0 399 -223q141 -207 142 -502q0 -252 -103 -463q59 -39 97 -112.5t38 -145.5q0 -94 -32 -94h-4l-222 176q-135 -135 -323 -135q-211 0 -367 187q-170 205 -170 522zM340 729q0 -193 55 -317q66 -154 199 -154q29 0 86 16 q-180 137 -180 320q0 6 2 18.5t2 18.5q10 61 37 61q33 0 32 -37q0 -80 242 -200q37 104 37 278q0 471 -258 471q-254 0 -254 -475z" />
<glyph unicode="R" horiz-adv-x="1122" d="M53 582q0 602 62 786q27 78 94 78h409q195 0 316 -100q115 -96 115 -240q0 -227 -279 -393q309 -328 315 -672q0 -41 -45 -41q-4 0 -19 2t-22 2h-135q-72 0 -82 4q-29 12 -28 66q0 141 -72 313q-78 182 -158 182q-57 0 -118.5 -67.5t-61.5 -120.5q0 -55 33 -160 q37 -119 45 -184v-8q0 -25 -90 -25h-135q-63 0 -80 9.5t-27 60.5q-37 170 -37 508zM332 848q0 -78 49 -78q80 0 219 104q150 113 150 203q0 70 -64.5 109t-148.5 39q-205 0 -205 -377z" />
<glyph unicode="S" horiz-adv-x="1097" d="M37 381q0 82 24 154q29 88 82 88q14 0 29 -66q16 -90 37 -135q29 -66 125 -111t194 -45q94 0 166 39q80 45 80 117q0 68 -115 141q-94 61 -229 109q-174 59 -264 166q-84 98 -84 219q0 174 128 295q125 118 317 118h10q137 -2 270 -51q164 -63 164 -162q0 -25 -37 -81 q-66 -102 -103 -103q-16 0 -49 33q-98 127 -237 127q-82 0 -143.5 -48t-61.5 -108q0 -53 59.5 -93t274.5 -132q184 -80 264 -154q119 -108 119 -272q0 -201 -143.5 -326t-360.5 -125q-250 0 -391 131q-125 113 -125 275z" />
<glyph unicode="T" horiz-adv-x="1097" d="M4 1036q0 88 34 212t64 132q57 29 193 52q139 22 283 22h12q166 0 313 -39q191 -53 191 -145q0 -51 -43 -130t-68 -79t-49 33q-80 102 -176 102q-39 0 -45 -20q-74 -119 -74 -426q0 -141 47 -407.5t46 -317.5q-20 -20 -60 -21h-189q-61 0 -80.5 20.5t-29.5 102.5 q-25 184 -25 254q0 190 39 482t39 313q0 20 -29 20q-43 0 -164 -72q-80 -49 -159 -100q-39 -25 -49 -25q-20 0 -21 37z" />
<glyph unicode="U" horiz-adv-x="1167" d="M33 737q0 98 14 310q14 205 26.5 281.5t18.5 92.5q10 25 39 25h229q49 0 50 -37q0 -16 -9 -57q-77 -261 -77 -593v-9q0 -174 59 -312q72 -164 195 -164q266 0 266 521q0 287 -62 532q-4 16 -20 53q-12 31 -12 41q0 25 45 25h168q94 0 106 -78q41 -252 41 -561 q0 -831 -532 -832q-545 0 -545 762z" />
<glyph unicode="V" horiz-adv-x="1142" d="M45 1032q0 414 123 414h188q66 0 66 -33q0 -6 -12 -45q-49 -154 -52 -162q-30 -125 -30 -290v-11q0 -158 88 -352q90 -205 178 -205q86 0 172 191q82 184 82 342q0 297 -82 471q-29 61 -29 65q0 29 41 29h205q80 0 115 -182q20 -113 20 -260q0 -223 -102 -482 q-90 -227 -219 -393t-215 -166q-96 0 -220 131q-133 143 -219 369q-98 262 -98 569z" />
<glyph unicode="W" horiz-adv-x="1548" d="M45 1130q0 315 86 316h193q53 0 53 -29q0 -16 -22.5 -168.5t-22.5 -244.5q0 -170 30 -345q39 -221 101 -221q76 0 139 271q57 240 57 430q0 57 -14 157.5t-14 120.5q0 29 61 29h172q74 0 74 -41q0 -18 -20.5 -133t-20.5 -170q0 -186 39 -402q45 -258 108 -258 q74 0 136 238q53 209 53 381q0 53 -26.5 176t-26.5 156q0 53 53 53h131q111 0 111 -311q0 -233 -93 -531q-76 -248 -186 -450q-104 -190 -152 -191q-78 0 -274 414q-23 45 -41 45q-10 0 -53 -66q-195 -397 -254 -397q-55 0 -146 172q-94 182 -157 434q-74 291 -74 565z" />
<glyph unicode="X" horiz-adv-x="1122" d="M49 74q0 285 270 581q78 86 78 115q0 41 -37 78q-229 236 -229 545q0 37 23 47q16 6 84 6h163q57 0 58 -78q0 -125 45 -264q51 -162 114 -162q70 0 107 184q25 133 25 287q0 33 57 33h156q78 0 77 -78q0 -332 -176 -508q-53 -53 -53 -98q0 -35 31 -74q25 -29 51 -57 q88 -131 125 -225q63 -159 63 -349q0 -53 -65 -53h-209q-43 0 -57 33q-8 20 -9 74q0 137 -43 276q-53 170 -133 170q-90 0 -166 -184q-67 -166 -67 -312q0 -57 -53 -57h-164q-66 0 -66 70z" />
<glyph unicode="Y" horiz-adv-x="1097" d="M16 1331q0 115 99 115h176q57 0 57 -57q0 -10 -4 -59.5t-4 -59.5q0 -154 94 -326q83 -153 130 -153h1q59 0 150.5 183t91.5 316q0 20 -4 58t-4 45q0 53 49 53h151q82 0 82 -94q0 -178 -120 -398q-111 -188 -222 -374q-121 -219 -121 -396q0 -37 17 -110 q0 -49 -12.5 -59.5t-57.5 -10.5h-180q-55 0 -72 12q-22 15 -22 77v5q0 162 123 439q-190 205 -283 374q-115 209 -115 420z" />
<glyph unicode="Z" horiz-adv-x="1032" d="M20 94q0 168 146 418q63 111 270 399q145 203 146 260q0 70 -123 70q-66 0 -149 -49t-97 -49q-25 0 -25 33q-78 229 -77 245q0 25 90 25h778q70 -1 70 -62q0 -92 -164 -325q-152 -205 -303 -410q-164 -227 -164 -305q0 -55 55 -86q43 -25 109 -25q76 0 143 35 q41 20 94 62q41 35 53 35q20 0 25 -21q111 -297 111 -311q0 -29 -99 -29h-815q-74 0 -74 90z" />
<glyph unicode="[" horiz-adv-x="630" d="M111 557q0 233 20 510q16 240 33 313q12 55 18 68q16 27 64 27h286q78 0 78 -29q0 -14 -20.5 -27.5t-44.5 -13.5q-129 0 -185 -242q-37 -160 -36 -397q0 -293 51 -479q57 -217 170 -217q53 -12 53 -37q0 -29 -66 -29h-286q-45 0 -60.5 13.5t-33.5 80.5q-41 147 -41 459z " />
<glyph unicode="\" horiz-adv-x="876" d="M53 1425q0 27 86 25q94 -2 111 -25l524 -1405q0 -16 -69 -16q-102 0 -119 33z" />
<glyph unicode="]" horiz-adv-x="606" d="M-4 1442q0 29 78 28h286q47 0 64 -26q6 -12 18 -68q16 -74 33 -313q21 -277 21 -510q0 -311 -41 -459q-18 -68 -33.5 -81t-61.5 -13h-286q-66 0 -66 29q0 25 53 37q113 0 170 217q51 186 52 479q0 238 -37 397q-55 242 -185 242q-25 0 -45 13t-20 28z" />
<glyph unicode="^" horiz-adv-x="651" d="M131 905q0 217 82 393q68 147 115 148q53 0 125 -127q92 -166 92 -406q0 -25 -4 -28.5t-33 -3.5h-49q-20 0 -24.5 4t-4.5 28v37q0 106 -22 203q-27 109 -64 109q-25 0 -53.5 -96.5t-28.5 -186.5q0 -12 2 -38t2 -36q0 -2 2 -6t2 -6q0 -12 -61 -12h-41q-27 0 -32 3t-5 21z " />
<glyph unicode="_" horiz-adv-x="966" d="M0 -307q0 -18 37 119q10 39 26.5 48t51.5 9h762q53 0 68.5 -5t17.5 -28q0 -29 -29 -131q-10 -37 -39 -47q-18 -6 -88 -6h-746q-61 0 -61 41z" />
<glyph unicode="`" horiz-adv-x="561" d="M57 1188q0 86 68 164q90 104 260 114q16 0 16 -8q-45 -78 -45 -123q0 -39 50.5 -95t80.5 -56v-4q-12 -16 -20 -17l-176 -147q-20 -16 -58 -17q-61 0 -114 56.5t-62 132.5z" />
<glyph unicode="a" horiz-adv-x="851" d="M37 315v11q0 155 108 258q106 102 297 141q61 12 71.5 23.5t10.5 70.5q0 47 -53 77t-119 30q-125 0 -143 -78q-8 -74 -49 -74q-39 0 -73 54.5t-34 105.5q0 84 99.5 142.5t228.5 58.5q147 0 250 -76q117 -88 123 -252l28 -750q2 -37 -47 -47q-37 -6 -182 -6 q-252 0 -375 66q-137 74 -141 245zM262 365q0 -63 60 -111q53 -45 116 -45q99 0 99 94v193q0 53 -66 53t-133 -51q-76 -59 -76 -133z" />
<glyph unicode="b" horiz-adv-x="921" d="M37 455v422q0 96 16 282q18 211 37 275q12 41 82 41h94q82 0 82 -33q0 -23 -28.5 -134.5t-28.5 -148.5q0 -74 49 -74q12 0 76.5 22.5t99.5 22.5q133 0 229 -116q119 -146 119 -416q0 -246 -145 -424q-137 -170 -301 -170h-234q-68 0 -88 6q-27 10 -35 47q-24 212 -24 384 v14zM279 791q0 -266 22 -365q31 -131 121 -131q111 0 164 125q37 90 37 219q0 125 -45 217q-59 119 -177 119q-57 0 -89.5 -52.5t-32.5 -131.5z" />
<glyph unicode="c" horiz-adv-x="831" d="M37 508q0 293 168 473q145 158 327 158q104 0 179 -55.5t75 -141.5q0 -35 -34.5 -87t-63.5 -52t-53 57q-31 74 -115 74q-86 0 -166 -100q-88 -115 -88 -269q0 -145 74 -235q68 -84 168 -84q111 0 197 110q45 57 57 58q24 0 24 -86q0 -156 -106 -256q-100 -92 -238 -92 q-164 0 -276 126q-129 143 -129 402z" />
<glyph unicode="d" horiz-adv-x="921" d="M45 532q0 276 150 449q123 141 260 141q20 0 59 -22.5t47 -22.5q45 8 45 82q0 51 -24.5 148.5t-24.5 126.5q0 28 84 28h6h103q114 0 114 -512q0 -795 -16 -876q-10 -53 -19.5 -61.5t-58.5 -8.5h-328q-397 0 -397 528zM287 545q0 -109 43 -193q51 -102 145 -102 q160 0 160 311v205q0 197 -115 197q-125 0 -186 -154q-47 -115 -47 -264z" />
<glyph unicode="e" d="M29 516q0 223 125 410q141 209 358 209q131 0 229 -82q111 -94 111 -246q0 -231 -434 -340q-51 -12 -89 -46t-38 -73q0 -68 92 -108q72 -31 154 -31q217 0 262 188q8 33 16 33q10 0 25.5 -39t15.5 -84q0 -135 -100 -229q-106 -102 -281 -103q-213 0 -336 170 q-111 150 -110 371zM266 688q0 -37 49 -37q70 0 254 74q66 27 66 82q0 45 -45 84t-103 39q-92 0 -161 -90q-59 -78 -60 -152z" />
<glyph unicode="f" horiz-adv-x="651" d="M16 971l17 82q0 47 119 65q27 0 38 27q8 35 19 67q47 262 311 263q94 0 94 -54v-4l-12 -135q0 -53 -33 -53q-2 0 -20.5 8t-32.5 8q-27 0 -50.5 -31.5t-23.5 -66.5q0 -49 33 -49q6 0 31.5 4t42.5 4q37 0 51 -10.5t14 -55.5v-82q0 -37 -24 -36q-2 0 -32 4t-58 4 q-74 0 -90 -82q-8 -39 -9 -94q0 -113 37 -402t37 -315q0 -37 -45 -37q-2 0 -9 2t-11 2h-136q-61 0 -72.5 9.5t-21.5 60.5q0 49 -6 166.5t-6 156.5v492q0 49 -37 49q-14 0 -54 -10l-40 -10q-20 0 -21 53z" />
<glyph unicode="g" horiz-adv-x="966" d="M37 209q0 76 49 133q29 33 94 76q49 35 49 49q0 6 -32 47q-41 49 -62 94q-33 72 -33 154q0 145 105.5 252.5t251.5 107.5q78 0 127 -8q51 0 108.5 76t100.5 76q27 0 45 -25l69 -94q17 -17 17 -33q0 -14 -99 -20q-69 -16 -69 -53q0 -17 50 -107q48 -87 48 -162v-6 q-12 -385 -422 -385q-61 0 -112.5 -33t-51.5 -74q0 -53 70 -53q31 0 141.5 41t182.5 41q225 0 225 -102q0 -8 -2 -24.5t-2 -24.5l-58 -136q-20 -49 -57 -49q-33 0 -53 37q-29 49 -94 49q-41 0 -170 -39t-179 -39q-131 0 -184 57.5t-53 176.5zM307 791v-6q0 -80 49 -131 q50 -52 119 -52q68 0 122 52.5t54 136.5q0 82 -48 127t-116 45q-70 0 -120 -45q-57 -49 -60 -127z" />
<glyph unicode="h" d="M41 905q0 47 16 221q20 190 37 295q10 68 24.5 81.5t57.5 13.5h135q57 0 58 -37q0 -37 -35 -154t-35 -166q0 -74 29 -74q18 0 82.5 31t109.5 31q311 0 311 -488v-32q0 -383 -45 -570q-10 -39 -24 -46t-70 -7h-106q-82 0 -82 37q0 49 43 291.5t43 351.5q0 279 -131 279 q-100 0 -148 -158q-32 -110 -32 -259v-9q0 -82 24.5 -262.5t24.5 -237.5q0 -37 -58 -37q-2 0 -11 2t-13 2h-123q-39 0 -48 10.5t-22 71.5q-12 229 -12 819z" />
<glyph unicode="i" horiz-adv-x="425" d="M57 639q0 176 17 414q20 65 80 65h2h82q69 0 69 -52q0 -30 -10 -126t-10 -145v-9q0 -317 73 -712q0 -49 -12 -59.5t-57 -10.5h-148q-35 0 -49 8q-20 14 -20 63.5t-11 266.5q-6 184 -6 297zM74 1405q0 49 41 80t94 31q55 0 95 -31t40 -80q0 -68 -41 -105.5t-94 -37.5 q-55 0 -95 37.5t-40 105.5z" />
<glyph unicode="j" horiz-adv-x="561" d="M37 74q0 2 37 159q6 41 37 41q4 0 29.5 -22.5t43.5 -22.5q23 0 42.5 42t19.5 126q0 354 -37 680q0 41 65 41h123q66 0 66 -65q33 -295 33 -459q0 -618 -263 -619q-197 0 -196 99zM193 1405q0 49 40.5 80t94.5 31q55 0 95 -31t40 -80q0 -68 -41 -105.5t-94 -37.5t-94 37.5 t-41 105.5z" />
<glyph unicode="k" horiz-adv-x="921" d="M61 631q0 606 41 815q8 43 18.5 50t63.5 7h107q74 0 74 -49v-16q0 -80 -39 -325t-39 -351q0 -4 -2 -16.5t-2 -16.5q0 -74 24 -74q45 0 127 123q86 131 90 234q2 74 23 92q12 14 59 14h94q53 0 61.5 -9t8.5 -69q0 -80 -96 -237.5t-96 -159.5q0 -12 73 -78q90 -80 140 -174 q73 -141 73 -334q0 -41 -20 -49q-8 -4 -62 -4h-110q-55 0 -72 8q-23 12 -22 62q0 123 -60 268q-57 137 -100 137q-98 0 -99 -168q0 -20 16.5 -123.5t16.5 -158.5q0 -25 -61 -25h-135q-41 0 -49.5 9.5t-16.5 60.5q-29 164 -29 557z" />
<glyph unicode="l" horiz-adv-x="405" d="M37 643q0 504 45 766q8 49 22 61q8 8 43 9h111q66 0 82 -29q-2 -39 -29 -332q-24 -262 -24 -421v-13q0 -160 28.5 -400.5t28.5 -267.5q0 -16 -61 -16h-136q-45 0 -61 11.5t-16 58.5q-33 164 -33 573z" />
<glyph unicode="m" horiz-adv-x="1433" d="M41 606q0 328 37 500q12 57 25.5 69.5t56.5 12.5h123q49 0 49 -49q0 -6 -6.5 -21.5t-6.5 -23.5q0 -2 2.5 -8.5t2.5 -8.5q10 -37 28 -37l90 39t140 39q70 0 134 -39t83 -39l92 39q92 39 182 39h1q290 0 290 -626q0 -66 -6 -185q-8 -156 -10 -209q-2 -63 -17.5 -78.5 t-52.5 -15.5h-123q-94 0 -94 33q0 31 28.5 214t28.5 273q0 141 -31 244q-45 150 -145 150q-45 0 -78 -50.5t-37 -142.5q-1 -16 -1 -40q0 -48 3 -128q6 -139 7 -201q0 -154 -25 -282q-10 -53 -20.5 -61.5t-61.5 -8.5h-119q-66 0 -65 16l12 37q45 233 45 492q0 373 -127 373 q-180 0 -180 -418q0 -252 41 -447q4 -12 4 -37q0 -16 -74 -16h-94q-57 0 -69.5 7t-24.5 46q-37 246 -37 549z" />
<glyph unicode="n" horiz-adv-x="921" d="M53 614q0 322 66 533q8 29 24 35q10 6 45 6h148q37 0 37 -33q0 -4 -6.5 -31.5t-6.5 -42.5q0 -20 17 -20q14 0 104 28.5t142 28.5q113 0 176 -127q57 -119 57 -307v-16q0 -346 -45 -594q-10 -53 -20.5 -61.5t-61.5 -8.5h-119q-4 0 -15 -2t-13 -2q-45 0 -45 37 q0 74 38.5 295t38.5 282v54q0 258 -118 258q-100 0 -156 -111q-49 -100 -49 -254q0 -88 24.5 -276.5t24.5 -239.5q0 -29 -11.5 -35t-45.5 -6h-136q-33 0 -45 10.5t-24 59.5q-25 516 -25 540z" />
<glyph unicode="o" horiz-adv-x="987" d="M49 578v7q0 253 135 408q123 141 299 142q172 0 303 -142q148 -159 148 -415q0 -279 -137 -447q-126 -151 -303 -151h-2q-176 0 -302 149q-139 168 -141 449zM266 631q0 -176 68 -273q59 -84 149 -84q96 0 162 91q68 98 68 266q0 152 -72 241q-63 82 -154 82 q-88 0 -149 -80q-72 -90 -72 -243z" />
<glyph unicode="p" d="M49 713q0 197 4 270q6 104 51 139q35 25 125 25q244 0 402 -57q229 -85 229 -276v-7q-4 -215 -155 -401q-135 -164 -238 -164q-35 0 -87 69.5t-81 69.5q-12 0 -12 -57q0 -41 16 -123q18 -98 21 -127q0 -45 -7.5 -57.5t-46.5 -12.5h-135q-41 0 -49 10.5t-16 71.5 q-20 168 -21 627zM287 578q0 -111 90 -111q82 0 172 86t90 184t-66 160q-59 53 -135 53q-98 0 -133 -139q-18 -76 -18 -233z" />
<glyph unicode="q" d="M37 786q0 360 598 361q137 0 180 -53q25 -31 25 -123q0 -53 2 -195.5t2 -222.5q0 -162 -17 -467q-4 -59 -17 -70.5t-65 -11.5h-122q-39 0 -46.5 7t-7.5 46q29 258 29 291q0 14 -4 33q-14 0 -47 -43q-45 -61 -60 -76q-17 -24 -58 -24h-3q-111 0 -246 182 q-143 190 -143 366zM246 754q0 -104 92 -199.5t178 -95.5q94 0 94 131q0 154 -20 225q-37 131 -144 131q-98 0 -149 -55t-51 -137z" />
<glyph unicode="r" horiz-adv-x="716" d="M37 537q0 96 2 275t2 241q0 45 20 57q12 8 50 8h118q47 0 51.5 -47t18.5 -47q16 0 107.5 61.5t146.5 61.5q57 0 98 -60.5t41 -115.5q0 -70 -49 -135.5t-86 -65.5q-25 0 -25 49q0 31 -38.5 58.5t-79.5 27.5q-147 0 -148 -397q0 -205 58 -434q8 -33 8 -41q0 -29 -62 -29 h-147q-39 0 -48 9.5t-22 60.5q-16 131 -16 463z" />
<glyph unicode="s" horiz-adv-x="831" d="M37 291q0 129 49 192q39 -100 136 -185t167 -85q47 0 95 37t48 90q0 55 -61 98q-35 27 -152 82q-127 59 -174 113q-72 80 -71 215q0 147 110 231q98 76 242 76q113 0 225 -59q106 -57 107 -109q0 -4 -17 -45l-69 -94q-31 -41 -45 -41q-16 0 -62 70q-48 77 -141 77h-2 q-53 0 -94 -31.5t-41 -70.5q0 -49 73 -86q231 -117 310 -182q116 -103 116 -248q0 -168 -129 -268q-117 -92 -276 -93q-152 0 -248 90.5t-96 225.5z" />
<glyph unicode="t" horiz-adv-x="675" d="M41 1012q0 94 94 94q63 0 78.5 9t15.5 61q0 86 72 122q66 27 133 54q35 16 45 16q25 0 25 -37q0 -31 -22.5 -113.5t-22.5 -99.5q0 -20 24 -20q8 0 37 4t41 4q66 0 66 -90q0 -37 -13.5 -72t-27.5 -35q-12 0 -44 10.5t-46 10.5q-82 0 -82 -291q0 -135 23.5 -276.5 t54.5 -194.5q25 -57 24 -57q0 -18 -37 -37l-180 -86q-12 -4 -41 -4q-27 0 -41 73q-33 174 -33 381q0 59 2 169t2 159q0 164 -45 164q-8 0 -40.5 -12.5t-41.5 -12.5q-20 0 -20 107z" />
<glyph unicode="u" d="M33 528q0 248 61 537q12 37 25.5 45t56.5 8h94q74 0 74 -20q0 -80 -39 -290t-39 -267q0 -168 49 -258q41 -78 107 -78q172 0 172 430q0 68 -22.5 234.5t-22.5 207.5t49 41h111q55 0 64 -6t30 -59q37 -95 37 -492q0 -274 -25 -450q-16 -123 -94 -123h-94q-51 0 -63.5 49 t-26.5 49q-10 0 -89 -55.5t-149 -55.5q-139 0 -209 170q-57 143 -57 383z" />
<glyph unicode="v" horiz-adv-x="921" d="M37 1053q0 41 9 47t60 6h82q123 0 123 -29q-16 -164 -16 -172q0 -180 57.5 -370.5t106.5 -190.5q76 0 129 252q47 219 47 444q0 2 -2 10.5t-2 10.5q0 33 14 39q8 6 47 6h94q59 0 68.5 -8.5t9.5 -57.5q0 -334 -94 -604q-72 -211 -188 -348q-96 -113 -152 -113 q-53 0 -143 134q-102 154 -168 372q-82 272 -82 572z" />
<glyph unicode="w" horiz-adv-x="1277" d="M45 885q0 31 6 88t6 80q2 37 14.5 45t55.5 8h106q61 0 71.5 -10.5t10.5 -71.5q0 -14 -2 -48t-2 -50q0 -211 35 -394q33 -188 76 -188q37 0 82 135q53 160 53 365q0 27 -6 109.5t-6 119.5q0 33 57 33h111q49 0 57 -6t8 -47q0 -27 -4 -80t-4 -76q0 -238 45 -408 q39 -145 74 -145t78 158q45 170 45 350q0 33 -12.5 121t-12.5 108q0 25 66 25h94q49 0 57 -6t8 -47q13 -86 13 -172q0 -229 -82 -459q-66 -184 -164 -324q-88 -123 -131 -123q-47 0 -129 164t-88 164q-12 0 -102.5 -164t-147.5 -164q-39 0 -119 138q-86 150 -145 340 q-72 229 -72 432z" />
<glyph unicode="x" d="M41 74q4 143 61 264q37 84 103 158q53 63 53 65q0 4 -49 68q-57 74 -90 153q-49 119 -49 258q0 66 53 66h106q61 0 68 -2q27 -8 27 -51q0 -137 55 -240q45 -88 84 -88q31 0 70.5 111.5t39.5 203.5q0 45 19 58q10 8 47 8h94q41 0 55.5 -13.5t14.5 -52.5q0 -133 -49 -237 q-29 -61 -90 -135q-49 -57 -50 -78q0 -14 60 -72q72 -72 110 -149q60 -121 60 -283q0 -61 -5 -71.5t-36 -10.5h-135q-61 0 -71.5 9.5t-10.5 60.5q0 135 -74 250q-61 98 -106 98q-35 0 -74 -111q-45 -123 -45 -254q0 -39 -8.5 -46t-61.5 -7h-94q-61 0 -73 10q-10 8 -9 46v14z " />
<glyph unicode="y" d="M41 45v164q0 41 16.5 53t65.5 12q217 0 217 82q0 25 -78 105q-94 98 -143 201q-78 164 -78 391q0 41 9 47t61 6h135q69 0 69 -28q0 -15 -6 -59t-6 -56q0 -147 90 -289q78 -125 123 -125q33 0 70 111.5t37 244.5q0 18 -6.5 85t-6.5 87q0 18 12.5 23.5t57.5 5.5h94 q47 0 64.5 -8t17.5 -45q0 -332 -133 -598q-115 -225 -303 -361q-170 -123 -326 -123q-53 0 -53 74z" />
<glyph unicode="z" horiz-adv-x="831" d="M41 111q8 147 119 335q68 119 198 281q104 133 105 145v5q-6 24 -76 24h-6q-29 0 -112 -22.5t-97 -22.5q-33 0 -49 74l-29 123q0 43 35 51q6 2 76 2h504q47 0 56 -19.5t9 -115.5q0 -92 -108 -244q-102 -129 -205 -258q-109 -150 -109 -236q0 -32 81 -32h5q61 0 160 20 q23 4 50.5 18.5t35.5 14.5t37 -45q45 -98 45 -172q0 -23 -27 -29q-18 -4 -100 -4h-516q-57 0 -71 16q-11 12 -12 61q0 14 1 30z" />
<glyph unicode="{" horiz-adv-x="761" d="M127 725q0 6 23 18q31 14 51 43q31 47 45 132q12 170 24 337q27 207 152 207h250q78 0 78 -41q0 -37 -78 -41q-209 -12 -209 -209q0 -43 14.5 -126.5t14.5 -114.5q0 -59 -33 -109q-18 -29 -54 -59.5t-36 -36.5l61 -61q62 -62 62 -123v-4q0 -49 -14.5 -123t-14.5 -99 q0 -147 69 -200q45 -35 152 -41q66 -4 66 -33q0 -37 -54 -37h-286q-82 0 -117 70q-29 55 -35 185t-12 261q-4 78 -35 125q-20 31 -52 51.5t-32 28.5z" />
<glyph unicode="|" horiz-adv-x="540" d="M172 41l29 1389q0 31 94 28q94 -1 102 -24l-41 -1401q0 -25 -82 -25q-94 0 -102 33z" />
<glyph unicode="}" horiz-adv-x="786" d="M4 45q0 29 66 33q106 6 151 41q70 53 70 200q0 25 -14.5 99t-14.5 123l-4 4q0 61 64 123l63 61q0 6 -33 35q-39 33 -57 61q-33 49 -33 109q0 31 14.5 115t14.5 127q0 197 -209 208q-78 4 -78 41q0 41 78 41h250q125 0 151 -206q12 -168 25 -338q14 -84 45 -131 q20 -29 51 -43q23 -13 23 -19q0 -8 -29 -27q-35 -23 -55 -53q-31 -47 -35 -125q-6 -131 -12.5 -261t-34.5 -185q-35 -70 -117 -70h-287q-53 0 -53 37z" />
<glyph unicode="~" horiz-adv-x="851" d="M78 1319q0 82 78 139q68 49 143 49q66 0 123 -20q168 -61 213 -62q59 0 90 50q12 20 25 20q28 0 28 -49q0 -94 -78 -146q-68 -43 -159 -43q-92 0 -172 37q-115 53 -176 54q-33 0 -48.5 -33t-38.5 -33q-29 0 -28 37z" />
<glyph unicode="&#xa1;" horiz-adv-x="495" d="M45 963q0 94 59.5 149t137.5 55h8q78 0 135 -51t57 -137q0 -96 -56 -150.5t-132 -54.5q-78 0 -139 49q-70 56 -70 140zM57 -270q0 37 17 73q111 252 110 492q0 115 -12 287q-4 57 -4 49q0 45 90 45q57 0 61 -25q63 -143 97 -430q27 -219 26 -401q0 -123 -65 -123h-291 q-29 0 -29 33z" />
<glyph unicode="&#xa2;" horiz-adv-x="851" d="M37 508q0 293 168 473q145 158 327 158q37 0 74 -13l49 107q14 20 54 20h20q14 0 29.5 -9t15.5 -19v-4l-61 -144q74 -53 73 -135q0 -35 -34.5 -87t-63.5 -52t-53 57l-12 8l4 4l-250 -585q53 -41 131 -41q111 0 197 110q45 57 57 58q24 0 24 -86q0 -156 -106 -256 q-100 -92 -238 -92q-98 0 -180 40l-24 -57q0 -8 -21 -8q-8 0 -41 8q-57 8 -57 37l4 4l41 98q-127 141 -127 406zM266 565q0 -102 29 -159l233 528q-86 0 -170 -100q-92 -115 -92 -269z" />
<glyph unicode="&#xa3;" horiz-adv-x="1212" d="M90 49v156q0 86 86 86q6 0 47 -6t51 -6q123 0 123 204q-14 158 -57 209q-25 8 -37 8h-8q-20 0 -77.5 -16t-78.5 -16q-4 0 -12 4q-37 6 -37 61q0 143 78 144h16q16 -16 37 -17l4 -4q25 0 25 45q0 14 -10.5 87t-10.5 122q0 152 131 252q123 92 283 92q135 0 258 -59 q131 -66 131 -154q0 -39 -16 -49l-111 -66q-33 -25 -49 -24q-10 0 -61 49q-78 74 -144 74q-184 0 -184 -226q0 -143 131 -139q31 0 91.5 10.5t84.5 10.5q74 0 74 -66q0 -47 -31 -90q-33 -49 -76 -49q-25 0 -67.5 8t-55.5 8q-23 0 -27.5 -10t-4.5 -14q0 -8 24.5 -78 t24.5 -123q0 -111 -62 -164q41 8 66 8q33 0 105.5 -12t107.5 -12l8 -4q152 0 156 229q2 66 20 66q25 0 49 -66q41 -106 41 -180q0 -145 -71 -234q-78 -100 -224 -98q-61 0 -181 33t-163 33q-25 0 -133 -35t-153 -35h-25q-86 0 -86 53z" />
<glyph unicode="&#xa4;" horiz-adv-x="1122" d="M86 918l90 90l111 -103q109 90 266 90q166 0 274 -90l107 103l90 -90l-102 -99q94 -119 94 -282q0 -164 -94 -283l102 -107l-86 -81l-102 106q-109 -102 -283 -102q-166 0 -274 102l-107 -106l-82 81l103 107q-94 113 -95 283q0 170 95 282zM233 537q0 -137 93.5 -236.5 t226.5 -99.5t228.5 99.5t95.5 236.5q0 133 -95.5 230t-228.5 97q-131 0 -225.5 -97t-94.5 -230z" />
<glyph unicode="&#xa5;" horiz-adv-x="1437" d="M74 881q0 70 86 69h106q-90 186 -90 381q0 115 98 115h177q57 0 57 -57q0 -10 -4 -59.5t-4 -59.5q0 -154 94 -326q84 -154 131 -153q59 0 150.5 183t91.5 316q0 20 -4.5 58t-4.5 45q0 53 50 53h151q82 0 82 -94q0 -178 -123 -402q12 -12 17 -12q6 0 38.5 8t51.5 8l8 4 q49 0 88 -56t39 -107q0 -53 -45 -54l-8 -4q-31 0 -138.5 29t-136.5 29l-4 4q-27 -43 -78 -123q0 -8 8 -8l26 8t48 8l12 4q53 0 88 -54t35 -110q0 -53 -49 -53q-29 0 -125 24.5t-125 24.5h-4q-86 -172 -86 -336q0 -37 17 -110q0 -49 -12.5 -59.5t-57.5 -10.5h-180 q-55 0 -72 12q-23 16 -22 82q0 152 94 377q-10 37 -62 37q-25 0 -91 -18.5t-93 -18.5h-4q-55 0 -66 62q-18 53 -16 81q2 43 57 56q39 10 164 10q-33 41 -49 66q-16 33 -57 32q-23 0 -81.5 -20.5t-82.5 -20.5l-8 4q-51 0 -62 62q-16 49 -16 65q0 4 -4 9z" />
<glyph unicode="&#xa7;" horiz-adv-x="876" d="M74 782q0 158 155 250q-74 80 -73 156q0 100 65 176q76 90 217 90q115 0 191 -57q96 -76 96 -234h-131q-12 172 -156 172q-55 0 -94 -28q-49 -35 -49 -99q0 -72 115 -139l229 -135q168 -98 168 -250q0 -156 -164 -254q86 -86 86 -176q0 -113 -92 -184q-84 -66 -195 -66 q-307 0 -307 295h139q0 -180 148 -180q168 0 168 135q0 61 -86 119l-332 221q-98 66 -98 188zM201 819q0 -88 73 -135l295 -192q111 79 111 159q0 92 -98 152l-275 168q-106 -57 -106 -152z" />
<glyph unicode="&#xa8;" horiz-adv-x="1003" d="M156 1651q0 123 151 123q70 0 119 -31t49 -92q0 -68 -48 -106t-112 -38q-68 0 -110 35q-49 39 -49 109zM565 1634q0 66 44 103t112 37t116 -31t48 -92q0 -143 -156 -144q-66 0 -111 31q-53 37 -53 96z" />
<glyph unicode="&#xa9;" horiz-adv-x="1658" d="M102 741q0 322 204 519.5t534 197.5q328 0 516 -170q205 -189 205 -547q0 -393 -195 -571q-180 -162 -547 -162q-346 0 -536 207q-180 197 -181 526zM258 741q0 -260 160 -420.5t430 -160.5q256 0 405.5 160.5t147.5 420.5q-2 285 -182 433q-156 125 -400 124 q-252 0 -406.5 -156.5t-154.5 -400.5zM496 696q0 162 71 287q100 180 310 180q94 0 161.5 -38.5t67.5 -104.5q0 -80 -74 -94q-4 0 -12 -4t-12 -4q-29 0 -29 24q-20 78 -102 78q-92 0 -150.5 -84t-58.5 -199q0 -109 63.5 -187.5t157.5 -78.5q55 0 104 31q57 35 72 92 q8 29 16 29q10 0 17 -29q0 -10 2 -32.5t2 -33.5q0 -104 -68 -168q-74 -66 -198 -65q-154 0 -252 137q-88 119 -88 264z" />
<glyph unicode="&#xaa;" horiz-adv-x="516" d="M25 594q0 2 2 13t2 16l32 90q10 27 31 32q14 4 80 5h340q41 -1 41 -17l-2 -10t-2 -18l-25 -82q-8 -27 -16 -33t-45 -17h-385q-53 0 -53 21zM61 1012q-6 174 226 221q35 6 40 13t5 40q0 27 -30 42t-64 15q-70 0 -82 -40q0 -41 -25 -41q-20 0 -38.5 28.5t-18.5 57.5 q0 47 53 78.5t123 31.5q82 0 137 -43q63 -49 68 -137l16 -410q0 -20 -27 -24q-18 -4 -100 -4q-139 0 -205 34q-74 41 -78 138zM188 1036q0 -35 31 -60.5t64 -25.5q53 1 53 54v106q0 29 -37 29q-35 0 -70 -29q-41 -33 -41 -74z" />
<glyph unicode="&#xab;" horiz-adv-x="1032" d="M115 483q0 16 32 90l160 242q43 53 66 53q2 0 12 -2t12 -2l111 -65q29 -7 29 -25q0 -4 -41 -57l-148 -189q-25 -41 -24 -41q0 -4 24 -36l160 -213q20 -20 20 -41q0 -18 -32 -37l-62 -33q-51 -37 -74 -37t-41 37l-159 258q-45 74 -45 98zM504 487q0 37 33 86l159 242 q43 53 66 53q2 0 12 -2t12 -2l111 -65q25 -15 25 -29q0 -6 -37 -53l-148 -189q-25 -41 -24 -41q0 -4 24 -36l160 -213q20 -20 21 -41q0 -18 -33 -37l-62 -33q-51 -37 -73 -37q-23 0 -41 37l-160 258q-45 74 -45 102z" />
<glyph unicode="&#xac;" horiz-adv-x="942" d="M94 647v148h770v-578h-110v430h-660z" />
<glyph unicode="&#xad;" horiz-adv-x="630" d="M86 479q16 94 33 125q27 51 90 51h254q63 1 61 -24q-4 -63 -35 -127q-41 -82 -108 -82h-213q-82 0 -82 57z" />
<glyph unicode="&#xae;" horiz-adv-x="1658" d="M102 741q0 322 204 519.5t534 197.5q328 0 516 -170q205 -189 205 -547q0 -393 -195 -571q-180 -162 -547 -162q-346 0 -536 207q-180 197 -181 526zM258 741q0 -260 160 -420.5t430 -160.5q256 0 405.5 160.5t147.5 420.5q-2 285 -182 433q-156 125 -400 124 q-252 0 -406.5 -156.5t-154.5 -400.5zM553 655q0 344 37 459q14 45 53 45h238q113 0 186 -57q68 -57 68 -139q0 -133 -164 -230q178 -190 184 -393q0 -20 -49 -21h-82q-41 0 -47 5q-14 6 -14 36q0 80 -44.5 183.5t-91.5 103.5q-33 0 -69.5 -38t-36.5 -68q0 -35 20 -95 q20 -68 25 -106v-8q0 -12 -49 -13h-82q-35 0 -45 6.5t-17 34.5q-20 90 -20 295zM717 811q0 -45 28 -45q47 0 130 63.5t83 116.5q0 41 -37.5 63.5t-84.5 22.5q-119 0 -119 -221z" />
<glyph unicode="&#xaf;" horiz-adv-x="942" d="M82 1491q41 90 74 115q27 20 151 20h463q111 0 111 -20q0 -2 -4.5 -9.5t-4.5 -11.5q-47 -68 -73 -94q-72 -41 -181 -41h-389q-147 0 -147 41z" />
<glyph unicode="&#xb0;" horiz-adv-x="737" d="M135 1741q0 96 68 153q61 51 145 52q92 0 154 -52q67 -57 67 -153q0 -88 -65.5 -142.5t-151.5 -54.5q-92 0 -149 47q-68 51 -68 150zM274 1741q-4 -98 74 -99q86 1 86 99q0 41 -23.5 65.5t-54.5 24.5q-80 0 -82 -90z" />
<glyph unicode="&#xb1;" horiz-adv-x="966" d="M86 94q4 8 20 56q10 35 21 53q12 27 25 39q16 25 127 24h405q98 1 98 -24q0 -4 -4 -13.5t-4 -15.5q-35 -76 -65 -119q-57 -57 -156 -57h-336q-131 0 -131 57zM86 791q0 76 16 108q20 47 82 47q14 0 37 -2t29 -2q88 0 112.5 28.5t26.5 131.5q2 86 72 123q68 27 133 53 q35 16 45 16q27 0 25 -37q-4 -86 -29 -190t-25 -113q0 -20 95 -20q8 0 57 8t61 8q66 0 66 -90q0 -106 -41 -106q-12 0 -44 10t-46 10q-115 -4 -160 -94q-33 -66 -33 -205q0 -66 -63.5 -115t-124.5 -49q-2 0 -8.5 2t-8.5 2q-33 6 -32 29v160q0 262 -33 262l-50 -12 q-50 -13 -110 -13q-4 0 -12 2t-12 2q-25 0 -25 46z" />
<glyph unicode="&#xb2;" horiz-adv-x="585" d="M66 696q0 147 67 242q31 41 141 135q70 57 82 72q37 41 37 84q0 98 -86 98q-47 0 -88 -49q-10 -14 -51 -82q-6 -16 -12 -16q-10 0 -25 20l-37 66q-12 23 -12 41q0 2 2 10t2 10q27 55 91.5 93t129.5 38q78 0 142 -41q84 -53 83 -160q0 -168 -237 -323q-49 -33 -70 -82 q0 -20 21 -21q6 0 26.5 4.5t30.5 4.5q27 0 67 -8.5t52 -8.5q57 0 57 70q-8 25 -8 33t4 16q62 -31 62 -123q0 -55 -35 -102q-41 -53 -105 -53q-49 0 -97 10t-75 10q-16 0 -58 -10t-56 -10q-45 0 -45 32z" />
<glyph unicode="&#xb3;" horiz-adv-x="585" d="M66 770v12q14 16 53 76q25 39 37 39l53 -37q47 -33 78 -33q43 0 72.5 36t29.5 75q0 45 -37 78q-43 37 -115.5 41t-72.5 24q0 16 24 41q84 111 152 168q12 12 12 21q0 8 -45 8q-70 0 -127 -21l-45 -16q-12 0 -12 16q-25 41 -25 127q0 25 37 25h336q53 0 49 -61 q-6 -96 -147 -238q0 -8 24 -16q135 -64 135 -197q0 -123 -75.5 -203t-169.5 -80t-162 45q-59 37 -59 70z" />
<glyph unicode="&#xb4;" horiz-adv-x="778" d="M254 1573l139 282q27 53 36 61.5t50 8.5h78q70 0 70 -49q0 -76 -152 -205q-143 -119 -196 -119q-25 0 -25 21z" />
<glyph unicode="&#xb5;" horiz-adv-x="921" d="M-106 -594q0 66 69.5 529.5t69.5 580.5v12q0 4 -2 14.5t-2 14.5q0 170 65 508q12 37 25.5 45t56.5 8h94q74 0 74 -20q0 -80 -39 -290t-39 -267q0 -168 49 -258q41 -78 107 -78q172 0 172 430q0 68 -22.5 234.5t-22.5 207.5t49 41h111q55 0 64 -6t30 -59q37 -95 37 -492 q0 -274 -25 -450q-16 -123 -94 -123h-94q-51 0 -63.5 49t-26.5 49q-10 0 -89 -55.5t-149 -55.5q-49 0 -86 25q0 -233 -70 -561q-12 -37 -25.5 -45t-56.5 -8h-94q-74 0 -73 20z" />
<glyph unicode="&#xb6;" horiz-adv-x="942" d="M57 1147q0 311 377 311h406v-1458h-119v1360h-193v-1360h-122v848q-154 0 -251.5 86t-97.5 213z" />
<glyph unicode="&#xb7;" horiz-adv-x="806" d="M119 582q0 131 90 215q84 76 201 75h20q109 0 191 -69q92 -82 92 -213v-25q0 -139 -92 -223q-82 -76 -199 -76q-119 0 -207 82q-96 88 -96 234z" />
<glyph unicode="&#xb9;" horiz-adv-x="380" d="M78 1364q0 31 59.5 60.5t112.5 29.5q70 0 69 -45q0 -41 -12 -148.5t-12 -146.5q0 -74 14.5 -227.5t14.5 -198.5q0 -29 -25 -33q-16 -8 -49 -8q-8 0 -26.5 2t-26.5 2q-43 0 -50 70q0 -4 0 102q0 98 9 426q2 57 -45 78q-33 14 -33 37z" />
<glyph unicode="&#xba;" horiz-adv-x="606" d="M25 594q0 2 2 13t2 16l32 90q10 27 31 32q14 4 80 5h340q41 -1 41 -17l-2 -10t-2 -18l-25 -82q-8 -27 -16 -33t-45 -17h-385q-53 0 -53 21zM53 1151q-2 143 74 229q68 78 164 78q98 0 170 -78q80 -88 80 -229q0 -154 -76 -244q-70 -80 -166 -80q-100 0 -168 80 q-76 90 -78 244zM172 1180q0 -94 39 -150q33 -47 80 -47q55 0 91 52.5t36 144.5q0 84 -39 135q-35 45 -84 45q-47 0 -82 -43q-41 -51 -41 -137z" />
<glyph unicode="&#xbb;" horiz-adv-x="1032" d="M115 770q0 -6 37 -53l147 -189l25 -41q0 -4 -25 -36l-160 -213q-20 -20 -20 -41q0 -18 33 -37l61 -33q51 -37 74 -37t41 37l159 258q45 74 45 102q0 37 -32 86l-160 242q-43 53 -66 53q-2 0 -12 -2t-12 -2l-111 -65q-24 -15 -24 -29zM500 774q0 -4 41 -57l147 -189 l25 -41q0 -4 -25 -36l-160 -213q-20 -20 -20 -41q0 -18 33 -37l61 -33q51 -37 74 -37t41 37l160 258q45 74 45 98q0 16 -33 90l-160 242q-43 53 -65 53q-2 0 -12.5 -2t-12.5 -2l-111 -65q-28 -7 -28 -25z" />
<glyph unicode="&#xbc;" horiz-adv-x="1302" d="M111 -8q2 4 8 12q0 6 11 28.5t13 33.5l766 1306q53 90 144 90h32q33 -6 33 -41v-8q-12 -23 -37 -70l-823 -1306q-8 -27 -48 -46.5t-71 -19.5q-29 0 -28 21zM152 1376q0 31 59 60.5t113 29.5q70 0 69 -45q0 -41 -12 -148.5t-12 -146.5q0 -74 14 -227.5t14 -198.5 q0 -29 -24 -32q-16 -8 -49 -9q-8 0 -26.5 2.5t-27.5 2.5q-43 0 -49 69q0 -4 0 103q0 98 8 426q2 57 -45 77q-33 14 -32 37zM709 274q0 199 180 443q27 25 55.5 49.5t59.5 24.5h73q41 0 41 -21q0 -18 -16 -29q-63 -59 -141 -166q-92 -125 -109 -194l-4 -8q0 -12 37 -13 q82 0 98 66q4 51 37 114.5t72 90.5q18 12 30 12t13 -12q0 -12 -5 -17q-25 -74 -24 -151q0 -25 8 -57q2 -16 54.5 -18.5t52.5 -27.5v-86q0 -41 -33 -41q-14 4 -66 9q-37 0 -37 -49q0 -29 4.5 -87.5t4.5 -64.5q0 -18 -21 -27q-4 0 -53 -10h-37q-49 0 -49 29q25 184 24 168 q0 37 -32 37h-13q-18 0 -76.5 -16.5t-78.5 -16.5q-49 0 -49 69z" />
<glyph unicode="&#xbd;" horiz-adv-x="1392" d="M111 -8q2 4 8 12q0 6 11 28.5t13 33.5l766 1306q53 90 144 90h32q33 -6 33 -41v-8q-12 -23 -37 -70l-823 -1306q-8 -27 -48 -46.5t-71 -19.5q-29 0 -28 21zM152 1376q0 31 59 60.5t113 29.5q70 0 69 -45q0 -41 -12 -148.5t-12 -146.5q0 -74 14 -227.5t14 -198.5 q0 -29 -24 -32q-16 -8 -49 -9q-8 0 -26.5 2.5t-27.5 2.5q-43 0 -49 69q0 -4 0 103q0 98 8 426q2 57 -45 77q-33 14 -32 37zM799 45q0 147 69 244q27 37 144 137q68 59 82 74q37 43 36 86q0 98 -81 98q-70 0 -144 -135q-6 -12 -12 -12q-14 0 -25 20l-37 70q-16 16 -16 37 q0 4 2 11t2 9q31 57 96.5 96t133.5 39q78 0 141 -41q84 -55 84 -164q0 -174 -238 -331q-55 -37 -73 -82q0 -25 20 -25q6 0 27.5 6t29.5 6q29 0 69 -8t54 -8q61 0 62 70q-8 25 -8 32q0 8 4 17q61 -27 61 -123q0 -57 -37 -107q-43 -53 -106 -53q-49 0 -99.5 10.5t-76.5 10.5 q-16 0 -59.5 -10.5t-59.5 -10.5q-45 0 -45 37z" />
<glyph unicode="&#xbe;" horiz-adv-x="1413" d="M90 782v13q4 6 53 77q25 37 37 37q8 0 28 -16l21 -16q39 -33 78 -33q43 0 73 33.5t30 72.5q0 43 -39 76q-45 37 -117 39q-66 10 -66 29q0 16 21 41q63 70 147 163q16 10 17 21q0 8 -45 8q-51 0 -127 -20q-25 -16 -41 -17q-16 0 -17 17q-20 51 -20 123q0 25 37 24h327 q53 0 50 -61q-6 -96 -144 -234q0 -8 25 -16q135 -60 135 -193q0 -123 -76 -200.5t-170 -77.5t-160 43q-57 37 -57 67zM201 -8q2 4 8 12q0 6 11 28.5t13 33.5l766 1306q53 90 144 90h33q33 -6 32 -41v-8q-12 -23 -37 -70l-823 -1306q-8 -27 -48 -46.5t-71 -19.5q-29 0 -28 21 zM799 274q0 199 180 443q27 25 55.5 49.5t59.5 24.5h73q41 0 41 -21q0 -18 -16 -29q-63 -59 -141 -166q-92 -125 -109 -194l-4 -8q0 -12 37 -13q82 0 98 66q4 51 37 114.5t72 90.5q18 12 30 12t13 -12q0 -12 -4 -17q-25 -74 -25 -151q0 -25 8 -57q2 -16 54.5 -18.5 t52.5 -27.5v-86q0 -41 -33 -41q-14 4 -66 9q-37 0 -36 -49q0 -29 4 -87.5t4 -64.5q0 -18 -21 -27q-4 0 -53 -10h-37q-49 0 -49 29q25 184 25 168q0 37 -33 37h-12q-18 0 -77 -16.5t-79 -16.5q-49 0 -49 69z" />
<glyph unicode="&#xbf;" horiz-adv-x="831" d="M53 139q0 133 76 236q41 53 129 121q70 53 90 75q49 55 49 125q0 20 86 21q90 0 90 -21v-176q-12 -98 -84 -170q-63 -53 -124 -106q-66 -61 -66 -142q0 -47 44 -93t95 -46q41 0 82 41q14 16 29.5 36.5t28.5 20.5q10 0 20 -16q35 -33 94 -94q20 -23 21 -45q0 -31 -33 -66 q-117 -123 -258 -123q-190 0 -291 160q-78 121 -78 262zM287 1024q0 96 61 154q55 51 135 51q78 0 137.5 -55.5t59.5 -149.5q0 -84 -56.5 -136t-131.5 -52q-84 0 -142 49q-63 53 -63 139z" />
<glyph unicode="&#xc0;" horiz-adv-x="1212" d="M53 381q0 264 119 534q102 227 254 392q139 152 225 151q96 0 207 -119q127 -135 205 -358q92 -266 92 -600q0 -121 -16 -221q-29 -160 -90 -160h-271q-20 0 -20 16q0 10 57 123q86 168 86 279q0 57 -59 90q-51 29 -129 29q-135 0 -234 -48q-131 -59 -131 -178 q0 -68 64 -196q47 -96 47 -99q0 -16 -62 -16h-217q-127 0 -127 381zM315 1876q0 -76 152 -205q143 -119 197 -119q25 0 24 21l-139 282q-27 53 -36 61.5t-50 8.5h-78q-70 0 -70 -49zM389 762q0 -33 29 -33q2 0 15 4t18 4q14 0 121.5 20.5t160.5 20.5q10 0 34 -2t32 -2 q57 0 57 53q0 94 -69.5 211t-122.5 117q-61 0 -167 -143.5t-108 -249.5z" />
<glyph unicode="&#xc1;" horiz-adv-x="1212" d="M53 381q0 264 119 534q102 227 254 392q139 152 225 151q96 0 207 -119q127 -135 205 -358q92 -266 92 -600q0 -121 -16 -221q-29 -160 -90 -160h-271q-20 0 -20 16q0 10 57 123q86 168 86 279q0 57 -59 90q-51 29 -129 29q-135 0 -234 -48q-131 -59 -131 -178 q0 -68 64 -198q47 -94 47 -97q0 -16 -62 -16h-217q-127 0 -127 381zM389 762q0 -33 29 -33q2 0 15 4t18 4q14 0 121.5 20.5t160.5 20.5q10 0 34 -2t32 -2q57 0 57 53q0 94 -69.5 211t-122.5 117q-61 0 -167 -143.5t-108 -249.5zM592 1573l139 282q27 53 36 61.5t50 8.5h78 q70 0 70 -49q0 -76 -152 -205q-143 -119 -196 -119q-25 0 -25 21z" />
<glyph unicode="&#xc2;" horiz-adv-x="1212" d="M53 381q0 264 119 534q102 227 254 392q139 152 225 151q96 0 207 -119q127 -135 205 -358q92 -266 92 -600q0 -121 -16 -221q-29 -160 -90 -160h-271q-20 0 -20 16q0 10 57 123q86 168 86 279q0 57 -59 90q-51 29 -129 29q-135 0 -234 -48q-131 -59 -131 -178 q0 -68 64 -198q47 -94 47 -97q0 -16 -62 -16h-217q-127 0 -127 381zM309 1581q0 12 25 45l221 234q18 25 78 24q51 0 106 -41l201 -205q37 -37 37 -49q0 -10 -64.5 -37.5t-95.5 -27.5q-4 0 -96 79.5t-109 79.5q-12 0 -96 -75.5t-96 -75.5q-94 0 -111 49zM389 762 q0 -33 29 -33q2 0 15 4t18 4q14 0 121.5 20.5t160.5 20.5q10 0 34 -2t32 -2q57 0 57 53q0 94 -69.5 211t-122.5 117q-61 0 -167 -143.5t-108 -249.5z" />
<glyph unicode="&#xc3;" horiz-adv-x="1212" d="M53 381q0 264 119 534q102 227 254 392q139 152 225 151q96 0 207 -119q127 -135 205 -358q92 -266 92 -600q0 -121 -16 -221q-29 -160 -90 -160h-271q-20 0 -20 16q0 10 57 123q86 168 86 279q0 57 -59 90q-51 29 -129 29q-135 0 -234 -48q-131 -59 -131 -178 q0 -68 64 -198q47 -94 47 -97q0 -16 -62 -16h-217q-127 0 -127 381zM301 1622q0 76 74 135q63 53 127 53q100 0 210.5 -43t129.5 -43q68 0 102 49q10 20 29 21q28 0 28 -45q-37 -193 -233 -193q-92 0 -219 47t-137 47q-29 2 -29 -24q-20 -45 -57 -45q-25 0 -25 41zM389 762 q0 -33 29 -33q2 0 15 4t18 4q14 0 121.5 20.5t160.5 20.5q10 0 34 -2t32 -2q57 0 57 53q0 94 -69.5 211t-122.5 117q-61 0 -167 -143.5t-108 -249.5z" />
<glyph unicode="&#xc4;" horiz-adv-x="1212" d="M53 381q0 264 119 534q102 227 254 392q139 152 225 151q96 0 207 -119q127 -135 205 -358q92 -266 92 -600q0 -121 -16 -221q-29 -160 -90 -160h-271q-20 0 -20 16q0 10 57 123q86 168 86 279q0 57 -59 90q-51 29 -129 29q-135 0 -234 -48q-131 -59 -131 -178 q0 -68 64 -198q47 -94 47 -97q0 -16 -62 -16h-217q-127 0 -127 381zM289 1692q0 123 151 123q70 0 119 -31t49 -92q0 -68 -48 -106t-112 -38q-68 0 -110 35q-49 39 -49 109zM389 762q0 -33 29 -33q2 0 15 4t18 4q14 0 121.5 20.5t160.5 20.5q10 0 34 -2t32 -2q57 0 57 53 q0 94 -69.5 211t-122.5 117q-61 0 -167 -143.5t-108 -249.5zM698 1675q0 66 44 103t112 37t116 -31t48 -92q0 -143 -156 -144q-66 0 -111 31q-53 37 -53 96z" />
<glyph unicode="&#xc5;" horiz-adv-x="1212" d="M53 381q0 264 119 534q102 227 254 392q139 152 225 151q96 0 207 -119q127 -135 205 -358q92 -266 92 -600q0 -121 -16 -221q-29 -160 -90 -160h-271q-20 0 -20 16q0 10 57 123q86 168 86 279q0 57 -59 90q-51 29 -129 29q-135 0 -234 -48q-131 -59 -131 -178 q0 -68 64 -198q47 -94 47 -97q0 -16 -62 -16h-217q-127 0 -127 381zM389 762q0 -33 29 -33q2 0 15 4t18 4q14 0 121.5 20.5t160.5 20.5q10 0 34 -2t32 -2q57 0 57 53q0 94 -69.5 211t-122.5 117q-61 0 -167 -143.5t-108 -249.5zM422 1761q0 96 68 153q61 51 145 52 q92 0 154 -52q67 -57 67 -153q0 -88 -65.5 -142.5t-151.5 -54.5q-92 0 -149 47q-68 51 -68 150zM561 1761q-4 -98 74 -99q86 1 86 99q0 41 -23.5 65.5t-54.5 24.5q-80 0 -82 -90z" />
<glyph unicode="&#xc6;" horiz-adv-x="1884" d="M53 381q0 264 119 534q102 227 254 392q139 152 225 151q70 0 160 -80t168 -223q20 139 37 213q14 66 119 66h589q90 0 91 -41q0 -8 -9 -41l-98 -193q-6 -25 -33 -24q-12 0 -78 41q-45 37 -163 36q-111 0 -180.5 -64.5t-69.5 -168.5q0 -82 57 -82q16 0 146.5 41t181.5 41 q66 0 65 -45q0 -12 -8 -45l-82 -205q-6 -33 -28 -33q-8 0 -62.5 18.5t-77.5 18.5q-98 0 -161.5 -76.5t-63.5 -169.5q0 -78 54.5 -139t150.5 -70q137 0 241 70q61 41 82 41q18 0 45 -41q29 -57 56 -113q47 -102 47 -153q0 -37 -90 -37h-959q-20 0 -20 16q0 10 57 123 q86 168 86 279q0 57 -59 90q-51 29 -129 29q-135 0 -234 -48q-131 -59 -131 -178q0 -68 64 -198q47 -94 47 -97q0 -16 -62 -16h-217q-127 0 -127 381zM389 762q0 -33 29 -33q2 0 15 4t18 4q14 0 121.5 20.5t160.5 20.5q10 0 34 -2t32 -2q57 0 57 53q0 94 -69.5 211 t-122.5 117q-61 0 -167 -143.5t-108 -249.5z" />
<glyph unicode="&#xc7;" horiz-adv-x="1142" d="M57 655q0 276 123 498q174 309 533 309q162 0 274 -65q119 -72 119 -185q0 -59 -36 -105t-87 -54q-37 -12 -45 -13q-49 0 -49 37q-27 135 -176 135q-158 0 -260 -147q-96 -139 -97 -340q0 -186 109.5 -318.5t271.5 -132.5q92 0 178 52q96 59 125 153q8 53 25 53 q23 0 29 -53q8 -70 8 -106q0 -168 -101 -277q-106 -115 -292 -133l-45 -82q0 -10 30 -26q39 -20 58 -39q31 -35 30 -86q0 -90 -112 -144q-88 -41 -178 -41q-47 0 -58 17l-4 8q0 16 41 24q61 14 70 87q0 45 -49 77q-33 6 -66 12.5t-33 20.5l-4 8q0 4 37 49l102 127 q-215 49 -350 269q-121 195 -121 411z" />
<glyph unicode="&#xc8;" horiz-adv-x="1032" d="M41 156q0 68 43 524q51 520 88 688q14 66 119 66h590q90 0 90 -41q0 -8 -8 -41l-99 -193q-6 -25 -33 -24q-12 0 -77 41q-45 37 -164 36q-111 0 -180.5 -64.5t-69.5 -168.5q0 -82 57 -82q16 0 146.5 41t181.5 41q66 0 66 -45q0 -12 -9 -45l-82 -205q-6 -33 -28 -33 q-8 0 -62.5 18.5t-77.5 18.5q-98 0 -161.5 -76.5t-63.5 -169.5q0 -78 54.5 -139t150.5 -70q137 0 242 70q61 41 82 41q18 0 45 -41q29 -57 55 -113q47 -102 47 -153q0 -23 -22 -29q-14 -4 -68 -4h-762q-2 0 -8 -2t-8 -2q-74 0 -74 156zM254 1876q0 -76 152 -205 q143 -119 196 -119q25 0 25 21l-140 282q-27 53 -36 61.5t-50 8.5h-77q-70 0 -70 -49z" />
<glyph unicode="&#xc9;" horiz-adv-x="1032" d="M41 156q0 68 43 524q51 520 88 688q14 66 119 66h590q90 0 90 -41q0 -8 -8 -41l-99 -193q-6 -25 -33 -24q-12 0 -77 41q-45 37 -164 36q-111 0 -180.5 -64.5t-69.5 -168.5q0 -82 57 -82q16 0 146.5 41t181.5 41q66 0 66 -45q0 -12 -9 -45l-82 -205q-6 -33 -28 -33 q-8 0 -62.5 18.5t-77.5 18.5q-98 0 -161.5 -76.5t-63.5 -169.5q0 -78 54.5 -139t150.5 -70q137 0 242 70q61 41 82 41q18 0 45 -41q29 -57 55 -113q47 -102 47 -153q0 -23 -22 -29q-14 -4 -68 -4h-762q-2 0 -8 -2t-8 -2q-74 0 -74 156zM500 1593l139 282q27 53 36 61.5 t50 8.5h78q70 0 70 -49q0 -76 -152 -205q-143 -119 -196 -119q-25 0 -25 21z" />
<glyph unicode="&#xca;" horiz-adv-x="1032" d="M41 156q0 68 43 524q51 520 88 688q14 66 119 66h590q90 0 90 -41q0 -8 -8 -41l-99 -193q-6 -25 -33 -24q-12 0 -77 41q-45 37 -164 36q-111 0 -180.5 -64.5t-69.5 -168.5q0 -82 57 -82q16 0 146.5 41t181.5 41q66 0 66 -45q0 -12 -9 -45l-82 -205q-6 -33 -28 -33 q-8 0 -62.5 18.5t-77.5 18.5q-98 0 -161.5 -76.5t-63.5 -169.5q0 -78 54.5 -139t150.5 -70q137 0 242 70q61 41 82 41q18 0 45 -41q29 -57 55 -113q47 -102 47 -153q0 -23 -22 -29q-14 -4 -68 -4h-762q-2 0 -8 -2t-8 -2q-74 0 -74 156zM278 1581q0 12 25 45l221 234 q18 25 78 24q51 0 106 -41l201 -205q37 -37 37 -49q0 -10 -64.5 -37.5t-95.5 -27.5q-4 0 -96 79.5t-109 79.5q-12 0 -96 -75.5t-96 -75.5q-94 0 -111 49z" />
<glyph unicode="&#xcb;" horiz-adv-x="1032" d="M41 156q0 68 43 524q51 520 88 688q14 66 119 66h590q90 0 90 -41q0 -8 -8 -41l-99 -193q-6 -25 -33 -24q-12 0 -77 41q-45 37 -164 36q-111 0 -180.5 -64.5t-69.5 -168.5q0 -82 57 -82q16 0 146.5 41t181.5 41q66 0 66 -45q0 -12 -9 -45l-82 -205q-6 -33 -28 -33 q-8 0 -62.5 18.5t-77.5 18.5q-98 0 -161.5 -76.5t-63.5 -169.5q0 -78 54.5 -139t150.5 -70q137 0 242 70q61 41 82 41q18 0 45 -41q29 -57 55 -113q47 -102 47 -153q0 -23 -22 -29q-14 -4 -68 -4h-762q-2 0 -8 -2t-8 -2q-74 0 -74 156zM197 1682q0 123 151 123q70 0 119 -31 t49 -92q0 -68 -48 -106t-112 -38q-68 0 -110 35q-49 39 -49 109zM606 1665q0 66 44 103t112 37t116 -31t48 -92q0 -143 -156 -144q-66 0 -111 31q-53 37 -53 96z" />
<glyph unicode="&#xcc;" horiz-adv-x="471" d="M-43 1876q0 -76 152 -205q143 -119 196 -119q25 0 25 21l-140 282q-27 53 -36 61.5t-50 8.5h-77q-70 0 -70 -49zM45 684q0 500 66 696q23 66 98 66h147q78 0 78 -41q0 -39 -47 -311.5t-47 -368.5q0 -297 86 -651q8 -33 8 -45q0 -29 -41 -29l-225 4q-53 0 -72 37 q-6 12 -22 98q-29 152 -29 545z" />
<glyph unicode="&#xcd;" horiz-adv-x="471" d="M45 684q0 500 66 696q23 66 98 66h147q78 0 78 -41q0 -39 -47 -311.5t-47 -368.5q0 -297 86 -651q8 -33 8 -45q0 -29 -41 -29l-225 4q-53 0 -72 37q-6 12 -22 98q-29 152 -29 545zM254 1573l139 282q27 53 36 61.5t50 8.5h78q70 0 70 -49q0 -76 -152 -205 q-143 -119 -196 -119q-25 0 -25 21z" />
<glyph unicode="&#xce;" horiz-adv-x="471" d="M-8 1581q0 12 25 45l221 234q18 25 78 24q51 0 106 -41l201 -205q37 -37 37 -49q0 -10 -64.5 -37.5t-95.5 -27.5q-4 0 -96 79.5t-109 79.5q-12 0 -96 -75.5t-96 -75.5q-94 0 -111 49zM45 684q0 500 66 696q23 66 98 66h147q78 0 78 -41q0 -39 -47 -311.5t-47 -368.5 q0 -297 86 -651q8 -33 8 -45q0 -29 -41 -29l-225 4q-53 0 -72 37q-6 12 -22 98q-29 152 -29 545z" />
<glyph unicode="&#xcf;" horiz-adv-x="471" d="M-69 1692q0 123 151 123q70 0 119 -31t49 -92q0 -68 -48 -106t-112 -38q-68 0 -110 35q-49 39 -49 109zM45 684q0 500 66 696q23 66 98 66h147q78 0 78 -41q0 -39 -47 -311.5t-47 -368.5q0 -297 86 -651q8 -33 8 -45q0 -29 -41 -29l-225 4q-53 0 -72 37q-6 12 -22 98 q-29 152 -29 545zM340 1675q0 66 44 103t112 37t116 -31t48 -92q0 -143 -156 -144q-66 0 -111 31q-53 37 -53 96z" />
<glyph unicode="&#xd1;" horiz-adv-x="1187" d="M45 709q0 737 148 737h81q109 0 279 -248q123 -182 254 -453q29 -61 49 -61q16 0 16 78v8q0 78 -36 315q-35 209 -58 308q0 53 58 53h147q45 0 64 -39q2 -8 18 -80q49 -225 49 -704q0 -365 -37 -537q-10 -49 -18 -61q-14 -20 -60 -21h-151q-53 0 -70 6q-29 10 -28 47 q0 172 -189 555q-184 375 -254 375q-29 0 -28 -143q0 -170 24 -420q23 -260 53 -379q0 -33 -20 -39q-6 -2 -49 -2h-148q-2 0 -6 -2t-6 -2q-53 0 -53 127q-25 205 -25 545q0 4 -2 17t-2 20zM219 1643q0 76 74 135q63 53 127 53q100 0 210.5 -43t129.5 -43q68 0 102 49 q10 20 29 21q28 0 28 -45q-37 -193 -233 -193q-92 0 -219 47t-137 47q-29 2 -29 -24q-20 -45 -57 -45q-25 0 -25 41z" />
<glyph unicode="&#xd2;" horiz-adv-x="1277" d="M57 537q23 393 181 657q168 281 413 281q258 0 428 -330q150 -286 150 -608q0 -225 -82 -353q-135 -209 -492 -209q-313 0 -446 121q-139 127 -152 441zM254 1876q0 -76 152 -205q143 -119 196 -119q25 0 25 21l-140 282q-27 53 -36 61.5t-50 8.5h-77q-70 0 -70 -49z M352 610q0 -324 291 -323q299 0 299 262q0 285 -102 473q-92 166 -197 166q-98 0 -192 -182q-98 -188 -99 -396z" />
<glyph unicode="&#xd3;" horiz-adv-x="1277" d="M57 537q23 393 181 657q168 281 413 281q258 0 428 -330q150 -286 150 -608q0 -225 -82 -353q-135 -209 -492 -209q-313 0 -446 121q-139 127 -152 441zM352 610q0 -324 291 -323q299 0 299 262q0 285 -102 473q-92 166 -197 166q-98 0 -192 -182q-98 -188 -99 -396z M592 1573l139 282q27 53 36 61.5t50 8.5h78q70 0 70 -49q0 -76 -152 -205q-143 -119 -196 -119q-25 0 -25 21z" />
<glyph unicode="&#xd4;" horiz-adv-x="1277" d="M57 537q23 393 181 657q168 281 413 281q258 0 428 -330q150 -286 150 -608q0 -225 -82 -353q-135 -209 -492 -209q-313 0 -446 121q-139 127 -152 441zM330 1581q0 12 25 45l221 234q18 25 78 24q51 0 106 -41l201 -205q37 -37 37 -49q0 -10 -64.5 -37.5t-95.5 -27.5 q-4 0 -96 79.5t-109 79.5q-12 0 -96 -75.5t-96 -75.5q-94 0 -111 49zM352 610q0 -324 291 -323q299 0 299 262q0 285 -102 473q-92 166 -197 166q-98 0 -192 -182q-98 -188 -99 -396z" />
<glyph unicode="&#xd5;" horiz-adv-x="1277" d="M57 537q23 393 181 657q168 281 413 281q258 0 428 -330q150 -286 150 -608q0 -225 -82 -353q-135 -209 -492 -209q-313 0 -446 121q-139 127 -152 441zM260 1633q0 76 74 135q63 53 127 53q100 0 210.5 -43t129.5 -43q68 0 102 49q10 20 29 21q28 0 28 -45 q-37 -193 -233 -193q-92 0 -219 47t-137 47q-29 2 -29 -24q-20 -45 -57 -45q-25 0 -25 41zM352 610q0 -324 291 -323q299 0 299 262q0 285 -102 473q-92 166 -197 166q-98 0 -192 -182q-98 -188 -99 -396z" />
<glyph unicode="&#xd6;" horiz-adv-x="1277" d="M57 537q23 393 181 657q168 281 413 281q258 0 428 -330q150 -286 150 -608q0 -225 -82 -353q-135 -209 -492 -209q-313 0 -446 121q-139 127 -152 441zM299 1692q0 123 151 123q70 0 119 -31t49 -92q0 -68 -48 -106t-112 -38q-68 0 -110 35q-49 39 -49 109zM352 610 q0 -324 291 -323q299 0 299 262q0 285 -102 473q-92 166 -197 166q-98 0 -192 -182q-98 -188 -99 -396zM708 1675q0 66 44 103t112 37t116 -31t48 -92q0 -143 -156 -144q-66 0 -111 31q-53 37 -53 96z" />
<glyph unicode="&#xd8;" horiz-adv-x="1277" d="M41 -4q0 2 2 6t2 6q10 29 33 62l69 98q-98 158 -90 369q14 389 176 657q170 281 418 281q174 0 307 -160l46 57q72 90 176 90h41q33 -6 32 -37v-12q-4 -16 -45 -70l-143 -184q164 -291 164 -622q0 -225 -82 -353q-135 -209 -492 -209q-272 0 -413 99l-25 -33 q-14 -29 -61 -51.5t-82 -22.5q-33 0 -33 29zM352 610q0 -76 13 -131l430 606q-76 102 -152 103q-98 0 -192 -182q-98 -188 -99 -396zM451 340q66 -53 192 -53q299 0 299 262q0 201 -61 364z" />
<glyph unicode="&#xd9;" horiz-adv-x="1167" d="M33 737q0 98 14 310q14 205 26.5 281.5t18.5 92.5q10 25 39 25h229q49 0 50 -37q0 -16 -9 -57q-78 -264 -77 -602q0 -174 59 -312q72 -164 195 -164q266 0 266 521q0 287 -62 532q-4 16 -20 53q-12 31 -12 41q0 25 45 25h168q94 0 106 -78q41 -252 41 -561 q0 -831 -532 -832q-545 0 -545 762zM203 1876q0 -76 151 -205q143 -119 197 -119q25 0 24 21l-139 282q-27 53 -36 61.5t-50 8.5h-78q-69 0 -69 -49z" />
<glyph unicode="&#xda;" horiz-adv-x="1167" d="M33 737q0 98 14 310q14 205 26.5 281.5t18.5 92.5q10 25 39 25h229q49 0 50 -37q0 -16 -9 -57q-78 -264 -77 -602q0 -174 59 -312q72 -164 195 -164q266 0 266 521q0 287 -62 532q-4 16 -20 53q-12 31 -12 41q0 25 45 25h168q94 0 106 -78q41 -252 41 -561 q0 -831 -532 -832q-545 0 -545 762zM530 1573l139 282q27 53 36 61.5t50 8.5h78q70 0 70 -49q0 -76 -152 -205q-143 -119 -196 -119q-25 0 -25 21z" />
<glyph unicode="&#xdb;" horiz-adv-x="1167" d="M33 737q0 98 14 310q14 205 26.5 281.5t18.5 92.5q10 25 39 25h229q49 0 50 -37q0 -16 -9 -57q-78 -264 -77 -602q0 -174 59 -312q72 -164 195 -164q266 0 266 521q0 287 -62 532q-4 16 -20 53q-12 31 -12 41q0 25 45 25h168q94 0 106 -78q41 -252 41 -561 q0 -831 -532 -832q-545 0 -545 762zM217 1581q0 12 25 45l221 234q18 25 78 24q51 0 106 -41l201 -205q37 -37 37 -49q0 -10 -64.5 -37.5t-95.5 -27.5q-4 0 -96 79.5t-109 79.5q-12 0 -96 -75.5t-96 -75.5q-94 0 -111 49z" />
<glyph unicode="&#xdc;" horiz-adv-x="1167" d="M33 737q0 98 14 310q14 205 26.5 281.5t18.5 92.5q10 25 39 25h229q49 0 50 -37q0 -16 -9 -57q-78 -264 -77 -602q0 -174 59 -312q72 -164 195 -164q266 0 266 521q0 287 -62 532q-4 16 -20 53q-12 31 -12 41q0 25 45 25h168q94 0 106 -78q41 -252 41 -561 q0 -831 -532 -832q-545 0 -545 762zM197 1671q0 123 151 123q70 0 119 -31t49 -92q0 -68 -48 -106t-112 -38q-68 0 -110 35q-49 39 -49 109zM606 1654q0 66 44 103t112 37t116 -31t48 -92q0 -143 -156 -144q-66 0 -111 31q-53 37 -53 96z" />
<glyph unicode="&#xdd;" horiz-adv-x="1097" d="M16 1331q0 115 99 115h176q57 0 57 -57q0 -10 -4 -59.5t-4 -59.5q0 -154 94 -326q84 -154 131 -153q59 0 150.5 183t91.5 316q0 20 -4 58t-4 45q0 53 49 53h151q82 0 82 -94q0 -178 -120 -398q-111 -188 -222 -374q-121 -219 -121 -396q0 -37 17 -110q0 -49 -12.5 -59.5 t-57.5 -10.5h-180q-55 0 -72 12q-23 16 -22 82q0 162 123 439q-190 205 -283 374q-115 209 -115 420zM530 1573l139 282q27 53 36 61.5t50 8.5h78q70 0 70 -49q0 -76 -152 -205q-143 -119 -196 -119q-25 0 -25 21z" />
<glyph unicode="&#xdf;" horiz-adv-x="942" d="M61 643q0 8 2.5 30.5t2.5 31.5q0 322 47 477q82 268 317 268q109 0 201 -84q98 -92 98 -215q0 -154 -131 -238q150 -70 233 -217q78 -134 78 -290q0 -178 -75 -295q-82 -123 -220 -123q-80 0 -142 31.5t-62 74.5q0 14 8 29l86 143q12 20 33 21q12 0 36.5 -14.5 t36.5 -14.5q18 0 29 74q8 51 8 90q0 131 -72 274q-70 131 -116 131q-16 0 -31.5 -14t-17.5 -14l-9 -4q-20 0 -20 65l12 90q0 35 59.5 64.5t67.5 107.5v8q0 98 -74 99q-143 0 -143 -455q0 -379 62 -704q0 -6 2 -21.5t2 -19.5q0 -25 -58 -25h-155q-31 0 -37 11.5t-17 78.5 q-41 301 -41 549z" />
<glyph unicode="&#xe0;" horiz-adv-x="851" d="M37 315q-4 162 108 269q106 102 297 141q61 12 71.5 23.5t10.5 70.5q0 47 -53 77t-119 30q-125 0 -143 -78q-8 -74 -49 -74q-39 0 -73 54.5t-34 105.5q0 84 99.5 142.5t228.5 58.5q147 0 250 -76q117 -88 123 -252l28 -750q2 -37 -47 -47q-37 -6 -182 -6q-252 0 -375 66 q-137 74 -141 245zM70 1569q0 -76 151 -205q143 -119 197 -119q25 0 24 21l-139 282q-27 53 -36 61.5t-50 8.5h-78q-69 0 -69 -49zM262 365q0 -63 60 -111q53 -45 116 -45q99 0 99 94v193q0 53 -66 53t-133 -51q-76 -59 -76 -133z" />
<glyph unicode="&#xe1;" horiz-adv-x="851" d="M37 315q-4 162 108 269q106 102 297 141q61 12 71.5 23.5t10.5 70.5q0 47 -53 77t-119 30q-125 0 -143 -78q-8 -74 -49 -74q-39 0 -73 54.5t-34 105.5q0 84 99.5 142.5t228.5 58.5q147 0 250 -76q117 -88 123 -252l28 -750q2 -37 -47 -47q-37 -6 -182 -6q-252 0 -375 66 q-137 74 -141 245zM262 365q0 -63 60 -111q53 -45 116 -45q99 0 99 94v193q0 53 -66 53t-133 -51q-76 -59 -76 -133zM315 1297l139 282q27 53 36 61.5t50 8.5h78q70 0 70 -49q0 -76 -152 -205q-143 -119 -196 -119q-25 0 -25 21z" />
<glyph unicode="&#xe2;" horiz-adv-x="851" d="M37 315q-4 162 108 269q106 102 297 141q61 12 71.5 23.5t10.5 70.5q0 47 -53 77t-119 30q-125 0 -143 -78q-8 -74 -49 -74q-39 0 -73 54.5t-34 105.5q0 84 99.5 142.5t228.5 58.5q147 0 250 -76q117 -88 123 -252l28 -750q2 -37 -47 -47q-37 -6 -182 -6q-252 0 -375 66 q-137 74 -141 245zM63 1284q0 12 25 45l221 234q18 25 78 24q51 0 106 -41l201 -205q37 -37 37 -49q0 -10 -64.5 -37.5t-95.5 -27.5q-4 0 -96 79.5t-109 79.5q-12 0 -96 -75.5t-96 -75.5q-94 0 -111 49zM262 365q0 -63 60 -111q53 -45 116 -45q99 0 99 94v193q0 53 -66 53 t-133 -51q-76 -59 -76 -133z" />
<glyph unicode="&#xe3;" horiz-adv-x="851" d="M37 315q-4 162 108 269q106 102 297 141q61 12 71.5 23.5t10.5 70.5q0 47 -53 77t-119 30q-125 0 -143 -78q-8 -74 -49 -74q-39 0 -73 54.5t-34 105.5q0 84 99.5 142.5t228.5 58.5q147 0 250 -76q117 -88 123 -252l28 -750q2 -37 -47 -47q-37 -6 -182 -6q-252 0 -375 66 q-137 74 -141 245zM45 1315q0 76 74 135q63 53 127 53q100 0 210.5 -43t129.5 -43q68 0 102 49q10 20 29 21q28 0 28 -45q-37 -193 -233 -193q-92 0 -219 47t-137 47q-29 2 -29 -24q-20 -45 -57 -45q-25 0 -25 41zM262 365q0 -63 60 -111q53 -45 116 -45q99 0 99 94v193 q0 53 -66 53t-133 -51q-76 -59 -76 -133z" />
<glyph unicode="&#xe4;" horiz-adv-x="851" d="M33 1364q0 123 151 123q70 0 119 -31t49 -92q0 -68 -48 -106t-112 -38q-68 0 -110 35q-49 39 -49 109zM37 315q-4 162 108 269q106 102 297 141q61 12 71.5 23.5t10.5 70.5q0 47 -53 77t-119 30q-125 0 -143 -78q-8 -74 -49 -74q-39 0 -73 54.5t-34 105.5 q0 84 99.5 142.5t228.5 58.5q147 0 250 -76q117 -88 123 -252l28 -750q2 -37 -47 -47q-37 -6 -182 -6q-252 0 -375 66q-137 74 -141 245zM262 365q0 -63 60 -111q53 -45 116 -45q99 0 99 94v193q0 53 -66 53t-133 -51q-76 -59 -76 -133zM442 1347q0 66 44 103t112 37 t116 -31t48 -92q0 -143 -156 -144q-66 0 -111 31q-53 37 -53 96z" />
<glyph unicode="&#xe5;" horiz-adv-x="851" d="M37 315q-4 162 108 269q106 102 297 141q61 12 71.5 23.5t10.5 70.5q0 47 -53 77t-119 30q-125 0 -143 -78q-8 -74 -49 -74q-39 0 -73 54.5t-34 105.5q0 84 99.5 142.5t228.5 58.5q147 0 250 -76q117 -88 123 -252l28 -750q2 -37 -47 -47q-37 -6 -182 -6q-252 0 -375 66 q-137 74 -141 245zM176 1424q0 96 68 153q61 51 145 52q92 0 154 -52q67 -57 67 -153q0 -88 -65.5 -142.5t-151.5 -54.5q-92 0 -149 47q-68 51 -68 150zM262 365q0 -63 60 -111q53 -45 116 -45q99 0 99 94v193q0 53 -66 53t-133 -51q-76 -59 -76 -133zM315 1424 q-4 -98 74 -99q86 1 86 99q0 41 -23.5 65.5t-54.5 24.5q-80 0 -82 -90z" />
<glyph unicode="&#xe6;" horiz-adv-x="1392" d="M37 315q-4 162 108 269q106 102 297 141q61 12 71.5 23.5t10.5 70.5q0 47 -53 77t-119 30q-125 0 -143 -78q-8 -74 -49 -74q-39 0 -73 54.5t-34 105.5q0 84 99.5 142.5t228.5 58.5q215 0 315 -148q133 139 299 139q131 0 230 -82q111 -94 110 -245q0 -231 -434 -340 q-51 -12 -89 -46t-38 -73q0 -68 92 -109q72 -31 154 -30q217 0 262 188q8 33 16 33q10 0 25.5 -39t15.5 -84q0 -135 -100 -229q-106 -102 -281 -103q-111 0 -200 45q-49 -12 -94 -12q-12 0 -50.5 2t-60.5 2q-252 0 -375 66q-137 74 -141 245zM262 365q0 -63 60 -111 q53 -45 116 -45q99 0 99 94v193q0 53 -66 53t-133 -51q-76 -59 -76 -133zM750 680q0 -37 49 -37q70 0 254 74q65 27 65 82q0 45 -45 84t-102 39q-92 0 -162 -91q-59 -78 -59 -151z" />
<glyph unicode="&#xe7;" horiz-adv-x="831" d="M37 508q0 293 168 473q145 158 327 158q104 0 179 -55.5t75 -141.5q0 -35 -34.5 -87t-63.5 -52t-53 57q-31 74 -115 74q-86 0 -166 -100q-88 -115 -88 -269q0 -145 74 -235q68 -84 168 -84q111 0 197 110q45 57 57 58q24 0 24 -86q0 -131 -77 -228q-74 -86 -185 -112 l-49 -94q0 -10 31 -27q39 -20 57 -39q31 -35 31 -86q0 -90 -113 -143q-88 -41 -178 -41q-47 0 -57 16l-4 8q0 16 41 25q61 14 69 86q0 45 -49 78q-33 6 -65.5 12t-32.5 20l-4 9q0 2 37 49l102 131q-133 37 -213 158q-90 137 -90 358z" />
<glyph unicode="&#xe8;" d="M29 516q0 223 125 410q141 209 358 209q131 0 229 -82q111 -94 111 -246q0 -231 -434 -340q-51 -12 -89 -46t-38 -73q0 -68 92 -108q72 -31 154 -31q217 0 262 188q8 33 16 33q10 0 25.5 -39t15.5 -84q0 -135 -100 -229q-106 -102 -281 -103q-213 0 -336 170 q-111 150 -110 371zM141 1569q0 -76 152 -205q143 -119 196 -119q25 0 25 21l-139 282q-27 53 -36 61.5t-50 8.5h-78q-70 0 -70 -49zM266 688q0 -37 49 -37q70 0 254 74q66 27 66 82q0 45 -45 84t-103 39q-92 0 -161 -90q-59 -78 -60 -152z" />
<glyph unicode="&#xe9;" d="M29 516q0 223 125 410q141 209 358 209q131 0 229 -82q111 -94 111 -246q0 -231 -434 -340q-51 -12 -89 -46t-38 -73q0 -68 92 -108q72 -31 154 -31q217 0 262 188q8 33 16 33q10 0 25.5 -39t15.5 -84q0 -135 -100 -229q-106 -102 -281 -103q-213 0 -336 170 q-111 150 -110 371zM266 688q0 -37 49 -37q70 0 254 74q66 27 66 82q0 45 -45 84t-103 39q-92 0 -161 -90q-59 -78 -60 -152zM428 1266l139 282q27 53 36 61.5t50 8.5h78q70 0 70 -49q0 -76 -152 -205q-143 -119 -196 -119q-25 0 -25 21z" />
<glyph unicode="&#xea;" d="M29 516q0 223 125 410q141 209 358 209q131 0 229 -82q111 -94 111 -246q0 -231 -434 -340q-51 -12 -89 -46t-38 -73q0 -68 92 -108q72 -31 154 -31q217 0 262 188q8 33 16 33q10 0 25.5 -39t15.5 -84q0 -135 -100 -229q-106 -102 -281 -103q-213 0 -336 170 q-111 150 -110 371zM155 1284q0 12 25 45l221 234q18 25 78 24q51 0 106 -41l201 -205q37 -37 37 -49q0 -10 -64.5 -37.5t-95.5 -27.5q-4 0 -96 79.5t-109 79.5q-12 0 -96 -75.5t-96 -75.5q-94 0 -111 49zM266 688q0 -37 49 -37q70 0 254 74q66 27 66 82q0 45 -45 84 t-103 39q-92 0 -161 -90q-59 -78 -60 -152z" />
<glyph unicode="&#xeb;" d="M29 516q0 223 125 410q141 209 358 209q131 0 229 -82q111 -94 111 -246q0 -231 -434 -340q-51 -12 -89 -46t-38 -73q0 -68 92 -108q72 -31 154 -31q217 0 262 188q8 33 16 33q10 0 25.5 -39t15.5 -84q0 -135 -100 -229q-106 -102 -281 -103q-213 0 -336 170 q-111 150 -110 371zM105 1364q0 123 151 123q70 0 119 -31t49 -92q0 -68 -48 -106t-112 -38q-68 0 -110 35q-49 39 -49 109zM266 688q0 -37 49 -37q70 0 254 74q66 27 66 82q0 45 -45 84t-103 39q-92 0 -161 -90q-59 -78 -60 -152zM514 1347q0 66 44 103t112 37t116 -31 t48 -92q0 -143 -156 -144q-66 0 -111 31q-53 37 -53 96z" />
<glyph unicode="&#xec;" horiz-adv-x="425" d="M-145 1528q0 -76 151 -205q143 -119 197 -119q25 0 24 21l-139 282q-27 53 -36 61.5t-50 8.5h-78q-69 0 -69 -49zM57 639q0 176 17 414q20 66 82 65h82q70 0 69 -53q0 -29 -10 -125t-10 -145q-1 -320 73 -721q0 -49 -12 -59.5t-57 -10.5h-148q-35 0 -49 8 q-20 14 -20 63.5t-11 266.5q-6 184 -6 297z" />
<glyph unicode="&#xed;" horiz-adv-x="425" d="M57 639q0 176 17 414q20 66 82 65h82q70 0 69 -53q0 -29 -10 -125t-10 -145q-1 -320 73 -721q0 -49 -12 -59.5t-57 -10.5h-148q-35 0 -49 8q-20 14 -20 63.5t-11 266.5q-6 184 -6 297zM182 1286l139 282q27 53 36 61.5t50 8.5h78q70 0 70 -49q0 -76 -152 -205 q-143 -119 -196 -119q-25 0 -25 21z" />
<glyph unicode="&#xee;" horiz-adv-x="425" d="M-111 1274q0 12 25 45l221 234q18 25 78 24q51 0 106 -41l201 -205q37 -37 37 -49q0 -10 -64.5 -37.5t-95.5 -27.5q-4 0 -96 79.5t-109 79.5q-12 0 -96 -75.5t-96 -75.5q-94 0 -111 49zM57 639q0 176 17 414q20 66 82 65h82q70 0 69 -53q0 -29 -10 -125t-10 -145 q-1 -320 73 -721q0 -49 -12 -59.5t-57 -10.5h-148q-35 0 -49 8q-20 14 -20 63.5t-11 266.5q-6 184 -6 297z" />
<glyph unicode="&#xef;" horiz-adv-x="425" d="M-182 1364q0 123 151 123q70 0 119 -31t49 -92q0 -68 -48 -106t-112 -38q-68 0 -110 35q-49 39 -49 109zM57 639q0 176 17 414q20 66 82 65h82q70 0 69 -53q0 -29 -10 -125t-10 -145q-1 -320 73 -721q0 -49 -12 -59.5t-57 -10.5h-148q-35 0 -49 8q-20 14 -20 63.5 t-11 266.5q-6 184 -6 297zM227 1347q0 66 44 103t112 37t116 -31t48 -92q0 -143 -156 -144q-66 0 -111 31q-53 37 -53 96z" />
<glyph unicode="&#xf1;" horiz-adv-x="921" d="M53 614q0 322 66 533q8 29 24 35q10 6 45 6h148q37 0 37 -33q0 -4 -6.5 -31.5t-6.5 -42.5q0 -20 17 -20q14 0 104 28.5t142 28.5q113 0 176 -127q57 -119 57 -307v-16q0 -346 -45 -594q-10 -53 -20.5 -61.5t-61.5 -8.5h-119q-4 0 -15 -2t-13 -2q-45 0 -45 37 q0 74 38.5 295t38.5 282v54q0 258 -118 258q-100 0 -156 -111q-49 -100 -49 -254q0 -88 24.5 -276.5t24.5 -239.5q0 -29 -11.5 -35t-45.5 -6h-136q-33 0 -45 10.5t-24 59.5q-25 516 -25 540zM107 1336q0 76 74 135q63 53 127 53q100 0 210.5 -43t129.5 -43q68 0 102 49 q10 20 29 21q28 0 28 -45q-37 -193 -233 -193q-92 0 -219 47t-137 47q-29 2 -29 -24q-20 -45 -57 -45q-25 0 -25 41z" />
<glyph unicode="&#xf2;" horiz-adv-x="987" d="M49 578q-2 258 135 415q123 141 299 142q172 0 303 -142q148 -159 148 -415q0 -279 -137 -447q-127 -152 -305 -151q-176 0 -302 149q-139 168 -141 449zM80 1589q0 -76 151 -205q143 -119 197 -118q25 0 25 20l-140 283q-27 53 -36 61t-50 8h-77q-70 0 -70 -49zM266 631 q0 -176 68 -273q59 -84 149 -84q96 0 162 91q68 98 68 266q0 152 -72 241q-63 82 -154 82q-88 0 -149 -80q-72 -90 -72 -243z" />
<glyph unicode="&#xf3;" horiz-adv-x="987" d="M49 578q-2 258 135 415q123 141 299 142q172 0 303 -142q148 -159 148 -415q0 -279 -137 -447q-127 -152 -305 -151q-176 0 -302 149q-139 168 -141 449zM266 631q0 -176 68 -273q59 -84 149 -84q96 0 162 91q68 98 68 266q0 152 -72 241q-63 82 -154 82q-88 0 -149 -80 q-72 -90 -72 -243zM418 1266l139 282q27 53 36 61.5t50 8.5h78q70 0 70 -49q0 -76 -152 -205q-143 -119 -196 -119q-25 0 -25 21z" />
<glyph unicode="&#xf4;" horiz-adv-x="987" d="M49 578q-2 258 135 415q123 141 299 142q172 0 303 -142q148 -159 148 -415q0 -279 -137 -447q-127 -152 -305 -151q-176 0 -302 149q-139 168 -141 449zM135 1253q0 12 25 45l221 234q18 25 78 24q51 0 106 -41l201 -205q37 -37 37 -49q0 -10 -64.5 -37.5t-95.5 -27.5 q-4 0 -96 79.5t-109 79.5q-12 0 -96 -75.5t-96 -75.5q-94 0 -111 49zM266 631q0 -176 68 -273q59 -84 149 -84q96 0 162 91q68 98 68 266q0 152 -72 241q-63 82 -154 82q-88 0 -149 -80q-72 -90 -72 -243z" />
<glyph unicode="&#xf5;" horiz-adv-x="987" d="M49 578q-2 258 135 415q123 141 299 142q172 0 303 -142q148 -159 148 -415q0 -279 -137 -447q-127 -152 -305 -151q-176 0 -302 149q-139 168 -141 449zM137 1305q0 76 74 135q63 53 127 53q100 0 210.5 -43t129.5 -43q68 0 102 49q10 20 29 21q28 0 28 -45 q-37 -193 -233 -193q-92 0 -219 47t-137 47q-29 2 -29 -24q-20 -45 -57 -45q-25 0 -25 41zM266 631q0 -176 68 -273q59 -84 149 -84q96 0 162 91q68 98 68 266q0 152 -72 241q-63 82 -154 82q-88 0 -149 -80q-72 -90 -72 -243z" />
<glyph unicode="&#xf6;" horiz-adv-x="987" d="M49 578q-2 258 135 415q123 141 299 142q172 0 303 -142q148 -159 148 -415q0 -279 -137 -447q-127 -152 -305 -151q-176 0 -302 149q-139 168 -141 449zM95 1375q0 123 151 123q70 0 119 -31t49 -92q0 -68 -48 -106t-112 -38q-68 0 -110 35q-49 39 -49 109zM266 631 q0 -176 68 -273q59 -84 149 -84q96 0 162 91q68 98 68 266q0 152 -72 241q-63 82 -154 82q-88 0 -149 -80q-72 -90 -72 -243zM504 1358q0 66 44 103t112 37t116 -31t48 -92q0 -143 -156 -144q-66 0 -111 31q-53 37 -53 96z" />
<glyph unicode="&#xf8;" horiz-adv-x="987" d="M41 -12l4 4q0 14 21 49l86 143q-102 164 -103 394q0 260 135 415q123 141 299 142q102 0 201 -62l33 57q45 78 155 78h41q45 -10 45 -41q-10 -20 -28 -61l-111 -164q115 -147 115 -364q0 -279 -137 -447q-127 -152 -305 -151q-131 0 -246 94l-33 -54q-12 -27 -53 -46 t-74 -19q-45 0 -45 33zM266 631q0 -127 29 -197l295 484q-49 37 -103 36q-88 0 -149 -80q-72 -90 -72 -243zM393 295q35 -20 90 -21q96 0 162 91q68 98 68 266q0 45 -17 119z" />
<glyph unicode="&#xf9;" d="M33 528q0 248 61 537q12 37 25.5 45t56.5 8h94q74 0 74 -20q0 -80 -39 -290t-39 -267q0 -168 49 -258q41 -78 107 -78q172 0 172 430q0 68 -22.5 234.5t-22.5 207.5t49 41h111q55 0 64 -6t30 -59q37 -95 37 -492q0 -274 -25 -450q-16 -123 -94 -123h-94q-51 0 -63.5 49 t-26.5 49q-10 0 -89 -55.5t-149 -55.5q-139 0 -209 170q-57 143 -57 383zM111 1548q0 -76 151 -205q143 -119 197 -118q25 0 24 20l-139 283q-27 53 -36 61t-50 8h-78q-69 0 -69 -49z" />
<glyph unicode="&#xfa;" d="M33 528q0 248 61 537q12 37 25.5 45t56.5 8h94q74 0 74 -20q0 -80 -39 -290t-39 -267q0 -168 49 -258q41 -78 107 -78q172 0 172 430q0 68 -22.5 234.5t-22.5 207.5t49 41h111q55 0 64 -6t30 -59q37 -95 37 -492q0 -274 -25 -450q-16 -123 -94 -123h-94q-51 0 -63.5 49 t-26.5 49q-10 0 -89 -55.5t-149 -55.5q-139 0 -209 170q-57 143 -57 383zM408 1235l139 282q27 53 36 61.5t50 8.5h78q70 0 70 -49q0 -76 -152 -205q-143 -119 -196 -119q-25 0 -25 21z" />
<glyph unicode="&#xfb;" d="M33 528q0 248 61 537q12 37 25.5 45t56.5 8h94q74 0 74 -20q0 -80 -39 -290t-39 -267q0 -168 49 -258q41 -78 107 -78q172 0 172 430q0 68 -22.5 234.5t-22.5 207.5t49 41h111q55 0 64 -6t30 -59q37 -95 37 -492q0 -274 -25 -450q-16 -123 -94 -123h-94q-51 0 -63.5 49 t-26.5 49q-10 0 -89 -55.5t-149 -55.5q-139 0 -209 170q-57 143 -57 383zM135 1253q0 12 25 45l221 234q18 25 78 24q51 0 106 -41l201 -205q37 -37 37 -49q0 -10 -64.5 -37.5t-95.5 -27.5q-4 0 -96 79.5t-109 79.5q-12 0 -96 -75.5t-96 -75.5q-94 0 -111 49z" />
<glyph unicode="&#xfc;" d="M33 528q0 248 61 537q12 37 25.5 45t56.5 8h94q74 0 74 -20q0 -80 -39 -290t-39 -267q0 -168 49 -258q41 -78 107 -78q172 0 172 430q0 68 -22.5 234.5t-22.5 207.5t49 41h111q55 0 64 -6t30 -59q37 -95 37 -492q0 -274 -25 -450q-16 -123 -94 -123h-94q-51 0 -63.5 49 t-26.5 49q-10 0 -89 -55.5t-149 -55.5q-139 0 -209 170q-57 143 -57 383zM64 1364q0 123 151 123q70 0 119 -31t49 -92q0 -68 -48 -106t-112 -38q-68 0 -110 35q-49 39 -49 109zM473 1347q0 66 44 103t112 37t116 -31t48 -92q0 -143 -156 -144q-66 0 -111 31q-53 37 -53 96z " />
<glyph unicode="&#xfd;" d="M41 45v164q0 41 16.5 53t65.5 12q217 0 217 82q0 25 -78 105q-94 98 -143 201q-78 164 -78 391q0 41 9 47t61 6h135q70 0 69 -29q0 -14 -6 -58t-6 -56q0 -147 90 -289q78 -125 123 -125q33 0 70 111.5t37 244.5q0 18 -6.5 85t-6.5 87q0 18 12.5 23.5t57.5 5.5h94 q47 0 64.5 -8t17.5 -45q0 -332 -133 -598q-115 -225 -303 -361q-170 -123 -326 -123q-53 0 -53 74zM397 1204l139 282q27 53 36 61.5t50 8.5h78q70 0 70 -49q0 -76 -152 -205q-143 -119 -196 -119q-25 0 -25 21z" />
<glyph unicode="&#xff;" d="M41 45v164q0 41 16.5 53t65.5 12q217 0 217 82q0 25 -78 105q-94 98 -143 201q-78 164 -78 391q0 41 9 47t61 6h135q70 0 69 -29q0 -14 -6 -58t-6 -56q0 -147 90 -289q78 -125 123 -125q33 0 70 111.5t37 244.5q0 18 -6.5 85t-6.5 87q0 18 12.5 23.5t57.5 5.5h94 q47 0 64.5 -8t17.5 -45q0 -332 -133 -598q-115 -225 -303 -361q-170 -123 -326 -123q-53 0 -53 74zM105 1344q0 123 151 123q70 0 119 -31t49 -92q0 -68 -48 -106t-112 -38q-68 0 -110 35q-49 39 -49 109zM514 1327q0 66 44 103t112 37t116 -31t48 -92q0 -143 -156 -144 q-66 0 -111 31q-53 37 -53 96z" />
<glyph unicode="&#x152;" horiz-adv-x="1929" d="M57 537q23 393 181 657q168 281 413 281q242 0 410 -293q16 121 30.5 186.5t118.5 65.5h590q90 0 90 -41q0 -8 -8 -41l-98 -193q-6 -25 -33 -24q-12 0 -78 41q-45 37 -164 36q-111 0 -180 -64.5t-69 -168.5q0 -82 57 -82q16 0 146 41t182 41q66 0 65 -45q0 -12 -8 -45 l-82 -205q-6 -33 -29 -33q-8 0 -62 18.5t-77 18.5q-98 0 -161.5 -76.5t-63.5 -169.5q0 -78 54 -139t151 -70q137 0 241 70q61 41 82 41q18 0 45 -41q29 -57 55 -113q48 -102 48 -153q0 -23 -23 -29q-14 -4 -68 -4h-761q-2 0 -8.5 -2t-8.5 -2q-37 0 -55 39q-129 -63 -324 -64 q-313 0 -446 121q-139 127 -152 441zM352 610q0 -324 291 -323q299 0 299 262q0 285 -102 473q-92 166 -197 166q-98 0 -192 -182q-98 -188 -99 -396z" />
<glyph unicode="&#x153;" horiz-adv-x="1607" d="M49 578q-2 258 135 415q123 141 299 142q219 0 355 -209q141 209 358 209q131 0 229 -82q111 -94 111 -246q0 -231 -434 -340q-51 -12 -89 -46t-38 -73q0 -68 92 -108q72 -31 154 -31q217 0 262 188q8 33 16 33q10 0 25.5 -39t15.5 -84q0 -135 -100 -229 q-106 -102 -281 -103q-221 0 -344 181q-129 -176 -323 -176q-176 0 -302 149q-139 168 -141 449zM266 631q0 -176 68 -273q59 -84 149 -84q96 0 162 91q68 98 68 266q0 152 -72 241q-63 82 -154 82q-88 0 -149 -80q-72 -90 -72 -243zM950 688q0 -37 49 -37q70 0 254 74 q66 27 66 82q0 45 -45 84t-103 39q-92 0 -161 -90q-59 -78 -60 -152z" />
<glyph unicode="&#x178;" horiz-adv-x="1097" d="M16 1331q0 115 99 115h176q57 0 57 -57q0 -10 -4 -59.5t-4 -59.5q0 -154 94 -326q84 -154 131 -153q59 0 150.5 183t91.5 316q0 20 -4 58t-4 45q0 53 49 53h151q82 0 82 -94q0 -178 -120 -398q-111 -188 -222 -374q-121 -219 -121 -396q0 -37 17 -110q0 -49 -12.5 -59.5 t-57.5 -10.5h-180q-55 0 -72 12q-23 16 -22 82q0 162 123 439q-190 205 -283 374q-115 209 -115 420zM197 1682q0 123 151 123q70 0 119 -31t49 -92q0 -68 -48 -106t-112 -38q-68 0 -110 35q-49 39 -49 109zM606 1665q0 66 44 103t112 37t116 -31t48 -92q0 -143 -156 -144 q-66 0 -111 31q-53 37 -53 96z" />
<glyph unicode="&#x2c6;" horiz-adv-x="911" d="M135 1581q0 12 25 45l221 234q18 25 78 24q51 0 106 -41l201 -205q37 -37 37 -49q0 -10 -64.5 -37.5t-95.5 -27.5q-4 0 -96 79.5t-109 79.5q-12 0 -96 -75.5t-96 -75.5q-94 0 -111 49z" />
<glyph unicode="&#x2dc;" horiz-adv-x="1003" d="M168 1602q0 76 74 135q63 53 127 53q100 0 210.5 -43t129.5 -43q68 0 102 49q10 20 29 21q28 0 28 -45q-37 -193 -233 -193q-92 0 -219 47t-137 47q-29 2 -29 -24q-20 -45 -57 -45q-25 0 -25 41z" />
<glyph unicode="&#x2000;" horiz-adv-x="983" />
<glyph unicode="&#x2001;" horiz-adv-x="1966" />
<glyph unicode="&#x2002;" horiz-adv-x="983" />
<glyph unicode="&#x2003;" horiz-adv-x="1966" />
<glyph unicode="&#x2004;" horiz-adv-x="655" />
<glyph unicode="&#x2005;" horiz-adv-x="491" />
<glyph unicode="&#x2006;" horiz-adv-x="327" />
<glyph unicode="&#x2007;" horiz-adv-x="327" />
<glyph unicode="&#x2008;" horiz-adv-x="245" />
<glyph unicode="&#x2009;" horiz-adv-x="393" />
<glyph unicode="&#x200a;" horiz-adv-x="109" />
<glyph unicode="&#x2010;" horiz-adv-x="630" d="M86 479q16 94 33 125q27 51 90 51h254q63 1 61 -24q-4 -63 -35 -127q-41 -82 -108 -82h-213q-82 0 -82 57z" />
<glyph unicode="&#x2011;" horiz-adv-x="630" d="M86 479q16 94 33 125q27 51 90 51h254q63 1 61 -24q-4 -63 -35 -127q-41 -82 -108 -82h-213q-82 0 -82 57z" />
<glyph unicode="&#x2012;" horiz-adv-x="630" d="M86 479q16 94 33 125q27 51 90 51h254q63 1 61 -24q-4 -63 -35 -127q-41 -82 -108 -82h-213q-82 0 -82 57z" />
<glyph unicode="&#x2013;" horiz-adv-x="921" d="M0 479q16 94 33 125q27 51 90 51h735q64 1 62 -24q-4 -63 -35 -127q-41 -82 -109 -82h-694q-82 0 -82 57z" />
<glyph unicode="&#x2014;" horiz-adv-x="1433" d="M2 479q16 94 33 125q27 51 90 51h1243q64 1 62 -24q-4 -63 -35 -127q-41 -82 -109 -82h-1202q-82 0 -82 57z" />
<glyph unicode="&#x2018;" horiz-adv-x="540" d="M57 1188q0 86 68 164q90 104 260 114q16 0 16 -8q-45 -78 -45 -123q0 -39 50.5 -95t80.5 -56v-4q-12 -16 -20 -17l-176 -147q-20 -16 -58 -17q-61 0 -114 56.5t-62 132.5z" />
<glyph unicode="&#x2019;" horiz-adv-x="540" d="M53 1274q16 20 25 20l176 152q18 16 57 16q61 0 114.5 -56t61.5 -136q0 -88 -67 -168q-90 -109 -260 -119q-16 0 -17 8q45 78 45 131q0 39 -50 95.5t-81 56.5h-4z" />
<glyph unicode="&#x201c;" horiz-adv-x="1097" d="M90 1184q0 86 68 164q90 104 260 114q16 0 16 -8q-45 -78 -45 -123q0 -39 50 -95t81 -56v-4q-12 -16 -20 -17l-176 -147q-20 -16 -58 -17q-61 0 -114.5 56.5t-61.5 132.5zM598 1184q0 86 68 164q90 104 260 114q16 0 16 -8q-45 -78 -45 -123q0 -39 50 -95t81 -56v-4 q-12 -16 -20 -17l-177 -147q-20 -16 -57 -17q-61 0 -114.5 56.5t-61.5 132.5z" />
<glyph unicode="&#x201d;" horiz-adv-x="1077" d="M86 1274q16 20 25 20l176 152q18 16 57 16q61 0 114.5 -56t61.5 -136q0 -88 -67 -168q-90 -109 -260 -119q-16 0 -17 8q45 78 45 131q0 39 -50 95.5t-81 56.5h-4zM578 1274q16 20 24 20l176 152q18 16 58 16q61 0 114.5 -56t61.5 -136q0 -88 -68 -168q-90 -109 -260 -119 q-16 0 -16 8q45 78 45 131q0 39 -50.5 95.5t-80.5 56.5h-4z" />
<glyph unicode="&#x2022;" horiz-adv-x="575" d="M92 643q-2 84 58 139q55 49 131 49q86 0 147 -51t61 -137q0 -92 -58 -144.5t-138 -52.5h-8q-76 0 -133.5 52.5t-59.5 144.5z" />
<glyph unicode="&#x202f;" horiz-adv-x="393" />
<glyph unicode="&#x205f;" horiz-adv-x="491" />
<glyph unicode="&#x25fc;" horiz-adv-x="1105" d="M0 0v1106h1106v-1106h-1106z" />
</font>
</defs>
</svg>
